<?xml version="1.0" standalone="no"?>
<!DOCTYPE svg PUBLIC "-//W3C//DTD SVG 1.1//EN" "http://www.w3.org/Graphics/SVG/1.1/DTD/svg11.dtd" >
<svg xmlns="http://www.w3.org/2000/svg" xmlns:xlink="http://www.w3.org/1999/xlink" version="1.1">
<metadata>
Created by FontForge 20161003 at Fri Sep  1 08:44:10 2017
 By www-data
Copyright (c) 1989, 1994, 1997, 1998, The Font Bureau, Inc. Designed by David Berlow after Fred Goudy. All rights reserved.
</metadata>
<defs>
<font id="CALIFR" horiz-adv-x="903" >
  <font-face 
    font-family="CALIFR"
    font-weight="400"
    font-stretch="normal"
    units-per-em="2048"
    panose-1="2 7 4 3 6 8 11 3 2 4"
    ascent="1526"
    descent="-522"
    x-height="913"
    cap-height="1358"
    bbox="-353.286 -523 2279 1803"
    underline-thickness="102"
    underline-position="-419"
    unicode-range="U+0020-F002"
  />
<missing-glyph horiz-adv-x="1024" 
d="M128 0v1526h768v-1526h-768zM256 128h512v1270h-512v-1270z" />
    <glyph glyph-name=".notdef" horiz-adv-x="1024" 
d="M128 0v1526h768v-1526h-768zM256 128h512v1270h-512v-1270z" />
    <glyph glyph-name="glyph1" horiz-adv-x="0" 
 />
    <glyph glyph-name="glyph2" horiz-adv-x="438" 
 />
    <glyph glyph-name="space" unicode=" " horiz-adv-x="438" 
 />
    <glyph glyph-name="exclam" unicode="!" horiz-adv-x="416" 
d="M297 979q0 -154 -34 -395q-29 -204 -50 -273q-8 -26 -27 -26q-22 0 -22 37q0 21 2 36q10 76 10 203q0 325 -51 641q-14 89 -14 86q0 27 26 27q27 0 51 -15q29 -13 72 -34q25 -14 29 -35q8 -46 8 -252zM281 74q0 -37 -24 -62q-27 -28 -71 -28q-82 0 -82 84q0 88 91 88
q86 0 86 -82z" />
    <glyph glyph-name="quotedbl" unicode="&#x22;" horiz-adv-x="578" 
d="M408 1305q4 -5 -7 -39q-15 -49 0 -138q22 -123 0 -184q-9 -26 -20 -35q-10 -5 -26 3.5t-19 19.5q-4 12 8 33q15 47 -4 157q-18 101 4 164q8 22 16 31q4 4 12 4t19 -4q6 -4 17 -12zM240 1305q4 -5 -7 -39q-15 -49 0 -138q22 -123 0 -184q-9 -26 -20 -35q-10 -5 -26 3.5
t-19 19.5q-4 12 8 33q15 47 -4 157q-17 101 4 164q8 22 17 31q3 4 11 4t19 -4q6 -4 17 -12z" />
    <glyph glyph-name="numbersign" unicode="#" horiz-adv-x="1151" 
d="M1102 311q3 -12 -4 -26q-4 -6 -15 -17q-8 -10 -36 6q-58 19 -340 115q-68 -207 -150 -452q-8 -25 -20 -35q-11 -5 -27 4q-6 4 -16 14q-7 7 6 37q36 113 145 455q-103 37 -311 108l-199 -583q-6 -18 -20 -35q-16 -4 -27 4q-14 9 -16 14q-10 10 6 37q49 149 194 586
q-86 31 -202 71q-21 7 -35 21q-6 12 4 27q4 5 14 16q5 5 37 -6q52 -18 201 -68q35 101 102 303l-323 109q-33 8 -33 26q0 13 3 27.5t19 13.5q12 0 31 -10q86 -26 324 -104l164 481q9 25 20 35q15 3 27 -4q5 -4 16 -15q4 -3 -6 -36q-18 -64 -160 -482q158 -49 307 -100
l197 602q7 22 20 35q13 2 27 -4q6 -4 16 -15q5 -3 -6 -36q-48 -155 -190 -601q94 -31 221 -75q17 -3 35 -21q5 -12 -4 -26q-4 -6 -15 -17q-8 -10 -36 6q-2 1 -220 72q-38 -118 -102 -317q184 -62 342 -119q22 -9 35 -21zM764 786q-102 34 -309 101q-33 -101 -103 -305
q106 -36 312 -109q36 123 100 313z" />
    <glyph glyph-name="dollar" unicode="$" horiz-adv-x="1047" 
d="M938 397q0 -151 -119 -262q-81 -76 -252 -108q-12 -3 -8 -308h-25q-26 0 -26 31q0 7 3 126.5t3 127.5q0 15 -18 14q-130 -2 -211 39q-146 74 -146 174q0 45 51 45q22 0 68 -38q30 -26 68 -136q9 -28 159 -36q25 -2 25 18q0 8 4 260.5t4 261.5q0 16 -10 19
q-162 49 -238 125q-100 100 -100 229q0 149 115 264q82 82 219 100q14 0 14 13v96q0 27 35 27q18 0 18 -17q0 -6 -1 -47.5t-1 -48.5q0 -18 15 -18q134 0 198 -33q90 -46 90 -107q0 -41 -43 -41q-76 0 -133 105q-16 31 -108 31q-19 0 -19 -13q0 -8 -3 -253.5t-3 -254.5
q0 -25 10 -28q207 -59 286 -153t79 -204zM518 1276q0 13 -3.5 16.5t-14.5 1.5q-80 -14 -158 -77q-15 -15 -39 -68q-20 -45 -20 -113q0 -97 47 -145q83 -85 162 -113q18 -6 21 -4t3 10zM827 342q0 96 -79 164q-82 70 -162 88q-19 4 -19 -14q0 -10 -6 -242.5t-6 -241.5
q0 -35 20 -30q105 21 185 100q67 67 67 176z" />
    <glyph glyph-name="percent" unicode="%" horiz-adv-x="1647" 
d="M1561 358q0 -103 -33 -186q-37 -93 -137 -154q-68 -41 -158 -41q-107 0 -143 21q-92 39 -140 141q-45 97 -45 213q0 129 48.5 216.5t129.5 129.5q67 35 185 35q87 0 151 -37q77 -53 109.5 -142t32.5 -196zM1454 319q0 162 -74 261q-72 96 -198 96q-59 0 -79 -8
q-23 -9 -44 -41q-43 -67 -43 -205q0 -145 47 -258q33 -80 88 -117q46 -31 104 -31q68 0 105 23q46 28 74 106q20 59 20 174zM1071 1356q9 -9 -6 -37q-79 -250 -500 -1493q-7 -22 -20 -35q-19 0 -28 4.5t-15 14.5q-10 9 6 36q231 689 500 1493q7 22 20 35q14 0 27 -4
q6 -4 16 -14zM719 915q0 -103 -33 -186q-37 -93 -137 -154q-68 -41 -158 -41q-106 0 -143 21q-92 39 -139 141q-46 97 -46 213q0 129 49 216.5t130 129.5q66 35 184 35q87 0 152 -37q76 -53 108.5 -142t32.5 -196zM612 877q0 161 -73 260q-73 96 -199 96q-54 0 -70 -5
q-30 -9 -53 -44q-43 -66 -43 -205q0 -145 47 -258q33 -80 88 -117q46 -31 105 -31q67 0 104 23q47 29 74 106q20 59 20 175z" />
    <glyph glyph-name="ampersand" unicode="&#x26;" horiz-adv-x="1772" 
d="M1733 238q0 -15 -17 -54q-42 -100 -139 -172q-36 -26 -92 -26q-44 0 -122.5 22.5t-191.5 91.5q-18 12 -34 2q-105 -61 -139 -74q-113 -40 -304 -40q-326 0 -473 143q-127 124 -127 350q0 133 60 250q30 59 84 103q41 33 84 53q10 5 -3 24q-22 36 -38 78q-27 67 -27 115
q0 26 29 63q79 104 196 164q12 6 51 6q43 0 114 -18q77 -19 108 -41q19 -14 18 -27q-3 -46 -25 -106q-14 -41 -18 -41t-20 22q-19 27 -62 45q-99 43 -209 43q-88 0 -88 -63q0 -39 37 -102q34 -59 145 -203q135 -174 203 -228q12 -9 18 -7q5 2 5 12q-6 186 94 264
q74 57 205 57q87 0 221 -35q110 -28 229 -28q70 0 111 28q52 37 52 96q0 10 -1 19q-2 16 4 20q12 9 15 11q2 2 8 -6q16 -27 16 -76q0 -91 -35 -131q-67 -78 -131 -78q-55 0 -211 39q-11 3 -13 -1q-3 -4 5 -16q64 -96 64 -211q0 -203 -113 -348q-8 -9 6 -20q24 -25 139 -62
q64 -20 119 -20q95 0 156 102q12 21 18 25q4 -1 10 -4q9 -8 9 -10zM1331 565q0 129 -82 211q-96 92 -229 92q-109 0 -160 -49q-55 -53 -55 -151q0 -110 41 -152q46 -48 161 -135q123 -93 191 -129q25 -13 39 4q94 114 94 309zM1085 131q9 8 -4 16q-113 76 -209 148
q-113 85 -229 207q-179 188 -278 340q-10 14 -21 8q-49 -26 -85 -91q-42 -75 -42 -163q0 -70 12 -135q24 -124 123 -223q111 -111 254 -148q80 -20 211 -20q200 0 268 61z" />
    <glyph glyph-name="quotesingle" unicode="'" horiz-adv-x="414" 
d="M240 1305q4 -5 -7 -39q-15 -49 0 -138q22 -123 0 -184q-9 -26 -20 -35q-10 -5 -26 3.5t-19 19.5q-4 12 8 33q15 47 -4 157q-17 101 4 164q8 22 17 31q3 4 11 4t19 -4q6 -4 17 -12z" />
    <glyph glyph-name="parenleft" unicode="(" horiz-adv-x="788" 
d="M727 1462q0 -7 -25 -28q-67 -56 -143 -154q-84 -108 -121 -196q-106 -258 -106 -631q0 -429 170 -694q47 -73 203 -196q16 -13 16 -23q0 -9 -13 -24t-20 -15q-6 0 -31 17q-207 149 -348 376q-164 265 -164 578q0 385 232 708q133 185 285 299q23 18 36 18q10 0 21 -16
q8 -12 8 -19z" />
    <glyph glyph-name="parenright" unicode=")" horiz-adv-x="788" 
d="M670 535q0 -332 -188 -619q-137 -209 -354 -388q-31 -25 -35 -25q-8 0 -21 18q-9 11 -9 21t26 31q112 93 186 200q203 295 203 737q0 216 -26 350q-19 101 -72 232q-79 194 -280 343q-26 19 -26 29q0 6 16 20.5t20 14.5q15 0 39 -17q181 -134 289.5 -280t159.5 -272
q72 -179 72 -395z" />
    <glyph glyph-name="asterisk" unicode="*" horiz-adv-x="995" 
d="M891 1104q0 -5 -19 -82q-8 -33 -18 -80q-4 -10 -25 -10q-4 0 -69 10q-182 29 -207 29q29 -55 80 -154q31 -62 72 -98q13 -8 28 -25q1 -4 -10 -12q-4 -1 -34 -6.5t-42 -7.5q-61 -6 -76 -9q-13 0 -20 19q-13 32 -23 65q-17 83 -45 201q-57 -63 -118 -133
q-11 -8 -39.5 -49.5t-28.5 -50.5q0 -25 -10 -35q-9 -9 -15 2q-15 22 -43 63q-14 38 -36 72q-6 8 8 25q1 1 57 41q70 41 160 102q-65 -6 -162 -14q-69 -3 -115 -31q-20 -15 -32 -12q-11 0 -11 12q0 4 7.5 32.5t9.5 41.5q0 1 22 75q3 11 21 11q24 0 73 -6q82 -15 207 -33
q-21 62 -78 166q-27 50 -75 90q-19 7 -25 22q-4 11 6 15q29 2 78 8q72 14 78 14q10 3 14 -18q1 -3 10.5 -31t12.5 -35q20 -83 55 -213q42 45 115 129q47 59 61 117q7 28 23 35q16 -26 45 -66q11 -23 43 -71q0 -13 -13 -25q-22 -16 -55 -45q-15 -9 -61 -37q-56 -34 -74 -55
q54 2 135 6q91 9 117 26.5t41 14.5z" />
    <glyph glyph-name="plus" unicode="+" horiz-adv-x="987" 
d="M799 627q0 -62 -15 -62q12 0 -73 1t-168 1q0 -79 -1 -167t-1 -81q0 -20 -62 -20q-57 0 -57 14q0 -6 1 84t1 170q-77 0 -171.5 2t-86.5 2q-21 0 -21 39q0 29 10 56q9 24 17 24q-3 0 86.5 -1t165.5 -1q0 79 2 171t2 83q0 21 39 21q25 0 52.5 -9.5t27.5 -17.5q0 -6 -2 -89
t-2 -159q81 0 160.5 -2t74.5 -2q21 0 21 -57z" />
    <glyph glyph-name="comma" unicode="," horiz-adv-x="438" 
d="M360 -43q0 -136 -135 -236q-30 -22 -37 -22q-12 0 -12 18q0 15 23 37q71 72 71 164q0 36 -18 68q-11 14 -39 14q-41 0 -72 24q-35 25 -35 66q0 62 91 62q66 0 114.5 -55t48.5 -140z" />
    <glyph glyph-name="hyphen" unicode="-" horiz-adv-x="698" 
d="M610 641q0 -24 -16 -31q-5 -3 -228 -97t-237 -99l-29 -11q-12 0 -12 31q0 26 16 33q355 148 471 192q22 9 25 9q10 0 10 -27z" />
    <glyph glyph-name="hyphen" unicode="&#x2010;" horiz-adv-x="698" 
d="M610 641q0 -24 -16 -31q-5 -3 -228 -97t-237 -99l-29 -11q-12 0 -12 31q0 26 16 33q355 148 471 192q22 9 25 9q10 0 10 -27z" />
    <glyph glyph-name="period" unicode="." horiz-adv-x="438" 
d="M305 72q0 -36 -28 -61t-64 -25q-92 0 -92 86q0 96 110 96q74 0 74 -96z" />
    <glyph glyph-name="slash" unicode="/" horiz-adv-x="598" 
d="M590 1466q4 -4 -6 -36q-30 -92 -248 -745q-223 -666 -252 -748q-8 -23 -21 -35q-30 -4 -43 18q-9 10 7 37q237 741 499 1493q8 22 21 35q27 0 43 -19z" />
    <glyph glyph-name="zero" unicode="0" horiz-adv-x="1047" 
d="M971 678q0 -134 -12 -205q-14 -81 -60 -190q-70 -169 -178 -236q-63 -39 -87 -47q-34 -12 -102 -12q-98 0 -153 22q-14 6 -103 68q-69 48 -134.5 194t-65.5 367q0 318 117 524q54 96 149.5 143.5t189.5 47.5q172 0 312 -174q127 -159 127 -502zM848 571q0 249 -55 404
q-60 168 -125 231q-78 76 -219 76q-90 0 -142 -63q-58 -71 -80 -193q-20 -115 -20 -223q0 -85 15 -218q17 -141 36 -204q78 -255 164.5 -295.5t161.5 -40.5q99 0 157 64q107 115 107 462z" />
    <glyph glyph-name="one" unicode="1" horiz-adv-x="696" 
d="M641 10q0 -10 -8 -10h-547q-10 0 -10 12v33q0 12 10 12h182q21 0 21 54q0 11 2 453.5t2 455.5q0 143 -6 184q-10 68 -109 68h-76q-12 0 -12 12v31q0 12 12 12h107q125 0 176 10.5t49 10.5q15 0 15 -21q0 2 -8.5 -484.5t-8.5 -525.5q0 -260 43 -260h156q10 0 10 -10v-37z
" />
    <glyph glyph-name="two" unicode="2" horiz-adv-x="1020" 
d="M934 133q0 -5 -12 -33q-17 -39 -39 -88q-8 -12 -17 -12h-755q-17 0 -17 31q0 20 35 43q259 172 412 370q106 139 146 245q38 99 38 226q0 137 -68 213q-78 89 -245 89q-198 0 -285 -113q-8 -10 -18 -6q-17 8 -17 16q0 31 54 86q48 49 96 76q117 67 270 67q158 0 254 -96
q92 -92 92 -256q0 -110 -45 -221q-86 -211 -219 -356q-148 -162 -299 -275q-10 -7 -10 -13q0 -11 24 -11h246q221 0 332 24q27 6 33 6q14 0 14 -12z" />
    <glyph glyph-name="three" unicode="3" horiz-adv-x="938" 
d="M836 393q0 -173 -183 -317q-116 -92 -344 -92q-143 0 -215 57q-14 11 -14 20q0 6 7 14.5t11 8.5q-3 0 25 -16q49 -29 172 -29q61 0 128.5 23t115.5 61q77 61 103 108q34 58 34 156q0 109 -117 201q-53 42 -233 80q-29 6 -29 26q0 13 35 25q99 34 186 112q68 61 68 201
q0 85 -51 146q-47 55 -154 55q-124 0 -211 -64q-25 -18 -29 -18q-16 0 -16 23q0 8 10 20q57 67 146 113q80 41 223 41q85 0 158 -66q79 -72 79 -184q0 -125 -114 -240q-84 -84 -125 -110q-29 -19 6 -25q142 -23 229 -98q99 -85 99 -232z" />
    <glyph glyph-name="four" unicode="4" horiz-adv-x="1087" 
d="M997 569q0 -12 -10 -30q-13 -41 -45 -80q-6 -13 -18 -13q-62 7 -133 7q-17 0 -17 -17q0 -6 4 -183.5t4 -193.5q0 -31 -14 -39q-6 -4 -61 -28q-61 -27 -68 -27q-23 0 -23 27q0 8 9.5 219t9.5 219q0 21 -19 21h-528q-35 0 -35 26q0 17 10 31q42 42 328 407q162 209 365 461
q21 19 39 19q16 0 16 -25q0 -6 -16.5 -391.5t-16.5 -396.5q0 -22 15 -19q10 0 97.5 8.5t92.5 8.5q14 0 14 -11zM662 1133q0 29 -27 -5q-20 -20 -166 -204l-264 -334q-11 -13 -10 -18t14 -5h418q15 0 18.5 5t3.5 16t6.5 276t6.5 269z" />
    <glyph glyph-name="five" unicode="5" horiz-adv-x="991" 
d="M891 1323q0 -20 -22.5 -65t-47.5 -68q-17 -16 -33 -16q-36 -3 -65 -3q-141 0 -286 34q-98 23 -132 40q-14 5 -20 -6q-16 -29 -62 -268q-3 -16 -1 -20q2 -6 14 -4q106 14 170 14q117 0 210 -46q83 -39 136 -92q129 -129 129 -344q0 -190 -133 -332q-55 -57 -146 -106
q-103 -55 -266 -55q-165 0 -262 67q-23 16 -23 27q0 31 17 31l28 -15q65 -43 221 -43q191 0 308 117q39 40 73 119q33 76 33 172q0 172 -139 289q-52 43 -117 67q-88 33 -186 33q-10 0 -54 -2t-51 -2q-28 0 -28 26q0 31 94 455q6 26 39 23q315 -29 497 -29q45 0 66 6
q34 10 27 10q12 0 12 -14z" />
    <glyph glyph-name="six" unicode="6" horiz-adv-x="1010" 
d="M918 446q0 -167 -50 -258q-59 -109 -155 -161q-55 -30 -84 -37q-32 -6 -125 -6q-221 0 -332 186q-88 147 -88 367q0 230 109 435q106 198 270 294q150 88 354 88q92 0 92 -33q0 -21 -43 -21q-26 0 -100 -10q-83 -12 -115 -24q-130 -51 -219 -140q-124 -124 -176 -280
q-10 -32 3 -32q6 0 15 7q45 22 105 51q79 41 192 41q73 0 138 -39q40 -24 57 -38q29 -24 63 -68q89 -113 89 -322zM807 332q0 203 -59 301q-75 123 -154 145q-66 19 -168 19q-119 0 -195 -62q-9 -8 -12 -33q-6 -58 -6 -122q0 -241 90 -367q119 -166 299 -166q71 0 105 31
q100 92 100 254z" />
    <glyph glyph-name="seven" unicode="7" horiz-adv-x="901" 
d="M905 1305q0 -19 -12 -37q-39 -58 -184 -273q-111 -164 -207 -363q-99 -202 -133 -339q-33 -129 -33 -238q0 -33 3 -75.5l3 -42.5q0 -29 -12 -29q-4 0 -10.5 1t-8.5 1q-77 36 -102 61q-12 13 -12 39q0 58 26 187q29 136 107 303q99 211 270 454q65 85 148 197q16 24 16 31
q0 10 -19 7q-4 0 -8 -1q-155 -33 -389 -33q-180 0 -285 31q-22 9 -22 18q0 2 9 22t24 52q9 19 22 49q7 16 21 16q6 0 51 -12q135 -37 348 -37q67 0 194 15q103 13 126 18q17 4 43 4t26 -26z" />
    <glyph glyph-name="eight" unicode="8" horiz-adv-x="993" 
d="M893 393q0 -182 -129 -311q-100 -100 -293 -100q-176 0 -270 108q-78 90 -78 246q0 117 76 223q29 41 129 111q11 8 -6 16q-181 85 -181 270q0 177 125 301q92 93 262 93q162 0 252 -90q37 -37 61 -99q21 -55 21 -96q0 -119 -80 -213q-38 -45 -149 -100q-21 -14 4 -23
q89 -31 155 -95q101 -98 101 -241zM741 1018q0 96 -71 170q-74 76 -234 76q-57 0 -77 -8q-28 -10 -60 -52q-47 -61 -47 -164q0 -209 280 -264q30 -6 67 10t81 60q61 76 61 172zM778 311q0 122 -78 195t-290 143q-18 6 -29 0q-47 -23 -96 -90q-52 -69 -52 -166q0 -63 27 -142
q26 -75 53 -106q49 -53 93 -72q55 -24 157 -24q100 0 150 57q65 76 65 205z" />
    <glyph glyph-name="nine" unicode="9" horiz-adv-x="1026" 
d="M950 831q0 -243 -108.5 -457t-274.5 -302q-95 -51 -133 -63q-77 -25 -198 -25q-117 0 -117 32q0 23 69 23q124 0 236 47q119 50 233 182q96 111 119 201q6 23 2 29q-3 6 -16 0q-52 -25 -125 -47q-105 -33 -166 -33q-134 0 -234 102q-122 125 -122 352q0 250 141 379
q105 97 262 97q187 0 309.5 -136t122.5 -381zM819 760q0 229 -110 377q-103 137 -277 137q-77 0 -108 -31q-95 -91 -95 -256q0 -204 70 -311q44 -68 77 -93.5t93 -39.5q53 -13 156 -13q95 0 172 64q13 16 16 35q6 33 6 131z" />
    <glyph glyph-name="colon" unicode=":" horiz-adv-x="438" 
d="M295 831q0 -92 -92 -92q-80 0 -80 82q0 94 102 94q70 0 70 -84zM307 86q0 -86 -90 -86q-82 0 -82 76q0 94 105 94q30 0 50 -27q17 -25 17 -57z" />
    <glyph glyph-name="semicolon" unicode=";" horiz-adv-x="438" 
d="M326 831q0 -86 -93 -86q-79 0 -79 76q0 94 102 94q70 0 70 -84zM354 -39q0 -138 -135 -237q-28 -21 -37 -21q-12 0 -12 18q0 15 23 37q71 72 71 162q0 40 -18 68q-11 16 -39 16q-42 0 -73 23q-34 25 -34 65q0 62 90 62q70 0 117 -56.5t47 -136.5z" />
    <glyph glyph-name="less" unicode="&#x3c;" horiz-adv-x="578" 
d="M512 217q-3 -8 -12 -24q-13 -9 -21 -11q-8 0 -33 19q-28 21 -208 190q-66 62 -152 137q-27 24 -27 33q0 10 13 23q-17 12 -17 26q0 17 19 33q54 70 162 182q122 127 165 179q18 26 31 26q9 -3 25 -12q11 -9 13 -17q-2 -5 -21 -36q-19 -24 -168 -232q-36 -46 -99 -129
l-12 -16l16 -13q55 -41 149 -159q101 -126 150 -168q27 -23 27 -31z" />
    <glyph glyph-name="equal" unicode="=" horiz-adv-x="700" 
d="M632 709q-10 -21 -27 -23q-4 -1 -244 -12.5t-260 -11.5h-30q-12 3 0 32q5 14 9.5 18.5t16.5 6.5q1 0 252 11q246 10 256 9q19 1 27 -2t0 -28zM632 483q-9 -20 -27 -22q-4 -2 -238.5 -13.5t-250.5 -11.5h-45q-12 4 0 33q5 14 9.5 18.5t16.5 6.5q-1 0 234.5 10t273.5 10
q21 0 27 -2q11 -4 0 -29z" />
    <glyph glyph-name="greater" unicode="&#x3e;" horiz-adv-x="578" 
d="M530 610q0 -10 -16 -26q12 -13 12 -23t-26 -33q-134 -128 -361 -327q-22 -20 -33 -19q-10 0 -21 11.5t-11 23.5q0 13 26 31q45 37 152 169q103 125 147 158l17 13l-13 16q-98 134 -266 361q-18 24 -18 32q0 11 11 22t24 11t30 -26q131 -139 328 -361q18 -16 18 -33z" />
    <glyph glyph-name="question" unicode="?" horiz-adv-x="696" 
d="M580 954q0 -144 -123 -297q-38 -46 -156 -135q-14 -11 -14 -28q0 -16 8 -31q20 -37 43 -60q20 -24 65 -26q15 -5 15 -17q0 -6 -6 -18q-4 -5 -29 -27l-51 -30q-24 -15 -33 -15q-12 0 -35 23q-49 49 -74 117q-10 28 -10 43q0 24 15 36q82 75 90 83q41 41 77 98
q78 120 78 270q0 43 -25 96q-30 62 -79 94q-90 60 -184 60q-7 0 -26.5 -1t-23.5 -1q-18 0 -18 14q0 7 12 25q27 38 43 49q8 11 25 14q34 6 82 6q158 0 256 -116q78 -93 78 -226zM399 80q0 -92 -98 -92q-68 0 -68 73q0 86 117 86q49 0 49 -67z" />
    <glyph glyph-name="at" unicode="@" horiz-adv-x="1499" 
d="M1419 776q0 -33 -4 -67q-32 -270 -289 -326q-149 -33 -225 -14q-104 25 -121 141q-2 17 -12 4q-38 -49 -104 -88q-78 -45 -144 -45q-57 0 -80 20q-59 54 -59 97q0 8 2 16q12 65 55 209q48 161 68 184q42 49 156 84q54 17 210 49q10 2 13 19q0 8 16 8q12 0 39 -4
q13 0 37 -2q15 0 12 -12l-96 -416q-5 -25 -5 -47q0 -44 32 -94q13 -23 43.5 -56t37.5 -33q282 0 322 306q4 31 4 61q0 243 -167 411q-172 173 -433 173q-195 0 -383 -201q-184 -197 -184 -495q0 -239 135 -398q160 -188 446 -188q135 0 326 106q9 3 18 -2q17 -9 21 -20
q4 -12 -14 -25q-157 -108 -361 -108q-303 0 -494.5 193t-191.5 497q0 281 200.5 481.5t481.5 200.5q325 0 513 -177q179 -169 179 -442zM866 989q3 15 -8 15q-58 0 -162 -46q-44 -19 -92 -120q-54 -113 -84 -273q-11 -60 12 -84q19 -18 70 -18q66 0 146 61q22 18 28 41
q5 18 46.5 214.5t43.5 209.5z" />
    <glyph glyph-name="A" unicode="A" horiz-adv-x="1341" 
d="M1331 10q0 -10 -6 -10h-461q-10 0 -10 12v27q0 14 10 14h137q16 0 13 18q-9 32 -69 208.5t-66 189.5q-8 20 -21 20h-483q-9 -2 -15 -12q-14 -27 -48 -126.5t-42 -135.5q-16 -80 -16 -96q0 -66 16 -66h152q12 0 12 -14v-29q0 -10 -10 -10h-404q-10 0 -10 10v33q0 10 8 10
h86q22 0 59.5 94t223.5 543q119 283 289 686q11 31 22 35q28 8 72 25q7 3 16 -10.5t-8 -30.5q-30 -31 -30 -60q-1 -30 14 -75q54 -150 195 -561.5t196 -532.5q53 -113 76 -113h94q8 0 8 -14v-29zM836 580q-41 119 -88 261t-97 296q-3 13 -8 16q-4 -4 -10 -16
q-125 -306 -179.5 -434t-54.5 -132q0 -6 9 -6h423q10 0 5 15z" />
    <glyph glyph-name="B" unicode="B" horiz-adv-x="1143" 
d="M1053 354q0 -157 -113 -256q-126 -110 -346 -110q-24 0 -155 6t-193 6h-154q-8 0 -8 8v35q0 10 8 10h139q25 0 25 35q0 12 -4 301t-4 318v403q-9 186 -39 186h-152q-8 0 -8 11v32q0 9 10 9h299q14 0 107.5 3t109.5 3h97q47 -2 129 -23q77 -30 130 -93q62 -74 62 -181
q0 -80 -28 -137q-12 -24 -54 -78q-55 -72 -153 -125q-20 -11 -2 -17q111 -34 200 -114q97 -86 97 -232zM840 977q0 130 -91 223.5t-243 93.5q-68 0 -88 -6q-15 -4 -17 -20q-2 -19 -2 -518q0 -19 11 -19q-3 0 40.5 1t86.5 1q19 0 77 -5q69 -7 72 -7q8 -1 25 8q58 30 92 96
q37 72 37 152zM883 328q0 139 -92 231q-129 129 -345 129q-26 0 -38 -6q-7 -2 -7 -20v-439q5 -154 33 -166q54 -22 160 -22q131 0 203 65q86 79 86 228z" />
    <glyph glyph-name="C" unicode="C" horiz-adv-x="1407" 
d="M1313 197q5 -9 -2 -17q-75 -81 -248 -143q-136 -49 -342 -49q-175 0 -277 35q-105 36 -204 133q-164 159 -164 485q0 181 94 363q76 146 231 247q202 131 519 131q119 0 217 -10q115 -12 145 -29q6 -2 6 -10q-1 -16 -10 -84q-6 -55 -10 -96q-2 -12 -8 -12q-9 0 -10.5 9
t-11 28t-83.5 69q-106 53 -313 53q-266 0 -424 -163q-178 -185 -178 -463q0 -305 188 -477q95 -87 192 -118q87 -28 234 -28q109 0 211 47.5t152 124.5q28 45 34 84q0 17 6 17q4 0 7 -9q7 -33 22 -63q10 -23 27 -55z" />
    <glyph glyph-name="D" unicode="D" horiz-adv-x="1397" 
d="M1319 690q0 -415 -277 -600q-100 -67 -229 -88q-76 -12 -229 -12q-71 0 -184.5 5t-188.5 5h-111q-10 0 -10 10q0 3 -1 14.5t-1 18.5q0 10 12 10h140q16 0 16 31q0 15 -3 263.5t-3 270.5l1 246q2 218 1 240q-6 203 -37 203h-141q-11 0 -11 10v33q0 10 13 10h618
q154 0 244 -39q60 -26 88 -43q63 -37 123 -96q170 -170 170 -492zM1180 555q0 301 -156 496q-110 137 -242 190q-137 55 -270 55q-56 0 -78 -5t-22 -40q0 -15 -1 -247t-1 -263v-405q0 -260 32 -266q79 -15 269 -15q210 0 323 109q146 139 146 391z" />
    <glyph glyph-name="E" unicode="E" horiz-adv-x="1174" 
d="M1124 143q-28 -57 -67 -131q-8 -12 -21 -12h-946q-10 0 -10 12v31q0 10 8 10h148q20 0 20 21q0 9 -2 307.5t-2 308t-1 206t-1 208.5q0 203 -39 203h-121q-10 0 -10 10v33q0 10 12 10h895q18 0 48.5 2t29.5 2q13 0 10 -10q-14 -55 -35 -127q-8 -23 -16 -23l-14 15
q-37 36 -117 51q-112 20 -475 24q-12 0 -16.5 -12t-4.5 -496q0 -20 17 -20h489q14 0 16.5 15t8 64t6.5 54q0 19 12 19h15q12 0 12 -17q0 -4 -4 -83.5t-4 -94.5t2 -105t2 -96q0 -22 -11 -22h-16q-10 0 -12 14q-4 64 -10 152q-3 20 -19 20q-9 0 -246.5 4t-242.5 4
q-13 0 -13 -18v-377q0 -240 52 -240q468 0 622 72q37 21 45 25q10 0 6 -13z" />
    <glyph glyph-name="F" unicode="F" horiz-adv-x="1149" 
d="M1110 1346q0 6 -16 -60q-10 -37 -23 -94q-2 -14 -12 -14q-7 0 -12 10q-12 20 -31 39q-35 33 -113 41q-17 1 -239 12.5t-234 11.5t-12 -10q-12 -55 -12 -485q0 -27 20 -27h498q17 0 18 10q5 57 12 127q2 13 15 13h18q10 0 10 -15q0 -3 -4 -88t-4 -98q0 -14 1 -106.5
t1 -98.5q0 -27 -12 -27h-21q-7 0 -10 13q0 5 -4 85.5t-4 84.5q0 10 -14 12q-62 10 -502 10q-14 0 -16 -14v-361q0 -264 53 -264h198q9 0 9 -8v-33q0 -12 -11 -12h-542q-11 0 -11 10v29q0 14 11 14h123q16 0 18 18.5t2 659.5v348q0 226 -35 226h-127q-12 0 -12 8v35
q0 10 10 10h326q15 0 288.5 -2t288.5 -2q20 0 59 2t40 2q14 0 14 -12z" />
    <glyph glyph-name="G" unicode="G" horiz-adv-x="1491" 
d="M1427 588q0 -13 -12 -13h-143q-12 0 -12 -12q0 8 -2.5 -63.5t-2.5 -139.5q0 -124 7 -229q0 -14 -11 -16q-34 0 -147 -52q-171 -77 -363 -77q-216 0 -305 34q-163 64 -256 197q-104 150 -104 412q0 260 168 467q120 147 364 223q133 41 344 41q219 0 324 -37q12 -4 12 -14
q0 -5 -5 -45q-6 -45 -7 -52q-10 -102 -14 -120q-3 -11 -11 -11q-14 0 -14 9q0 24 -6 47q-11 39 -53 67q-116 76 -353 76q-130 0 -216 -30q-113 -40 -212 -146q-159 -172 -159 -438q0 -293 170 -463q97 -98 220 -132q82 -22 220 -22q123 0 239 78q9 11 9 18v177q0 95 -2 133
q-7 120 -21 120h-215q-12 0 -12 19v20q0 15 14 15h553q14 0 14 -13v-28z" />
    <glyph glyph-name="H" unicode="H" horiz-adv-x="1556" 
d="M1495 12q0 -12 -8 -12h-516q-13 0 -13 10v33q0 10 15 10h145q18 0 22 10t5 64q2 109 2 551q0 18 -17 18h-702q-18 0 -18 -22q0 -324 2 -398q6 -223 45 -223h168q8 0 8 -12v-31q0 -10 -8 -10h-519q-12 0 -12 10v31q0 12 12 12h125q24 0 28.5 10t4.5 64q0 17 -2 272.5
t-2 283t-2 217t-2 202.5q0 203 -33 203h-141q-12 0 -12 10v33q0 10 12 10h510q12 0 12 -15v-28q0 -10 -12 -10h-150q-23 0 -26.5 -3.5t-3.5 -23.5q0 -533 -2 -483q1 -23 16 -23h702q17 0 17 19q0 7 -1 159.5t-1 167.5q0 187 -39 187h-154q-10 0 -10 12v31q0 10 14 10h512
q13 0 13 -15v-26q0 -12 -13 -12h-131q-29 0 -34 -5t-5 -32v-543q0 -405 2 -469q7 -203 39 -203h146q12 0 12 -12v-29z" />
    <glyph glyph-name="I" unicode="I" horiz-adv-x="670" 
d="M600 8q0 -8 -6 -8h-485q-9 0 -11 3t-2 7v31q0 9 3 10.5t7 1.5h136q14 0 14 29l-2 1034q0 189 -35 189h-127q-14 0 -14 10v35q0 8 10 8h485q9 0 9 -8v-37q0 -8 -11 -8h-141q-18 0 -18 -21q-2 -908 -2 -938q0 -148 1 -169q7 -124 40 -124h141q8 0 8 -8v-37z" />
    <glyph glyph-name="J" unicode="J" horiz-adv-x="713" 
d="M618 1317q0 -10 -10 -10h-139q-10 0 -10 -17q0 -7 -1 -319.5t-1 -352.5q0 -36 1 -266t1 -259q0 -233 -8 -278q-30 -162 -185 -263q-117 -75 -280 -75q-68 0 -122 34q-57 36 -57 82q0 54 76 54q55 0 105 -43q9 -7 59 -64q12 -13 33 -8q111 26 172 141q43 81 43 254v603
q0 389 -6 533q-3 69 -5 138q-8 106 -34 106h-152q-10 0 -10 12v31q0 10 10 10h510q10 0 10 -10v-33z" />
    <glyph glyph-name="K" unicode="K" horiz-adv-x="1382" 
d="M1362 12q0 -12 -10 -12h-279q-19 0 -24 10q-4 4 -177 223q-112 144 -221 252q-105 106 -139 133q-16 11 -27 3l-71 -62q-6 -14 -6 -20q0 -3 1 -128t1 -149q0 -209 26 -209h166q8 0 8 -12v-31q0 -10 -10 -10h-483q-15 0 -15 8v35q0 5 2 7.5t11 2.5h125q16 0 16 21
q0 4 -1 301.5t-1 314.5t-1 214.5t-1 203.5q0 199 -33 199h-145q-11 0 -11 10v35q0 8 11 8h487q8 0 8 -8v-33q0 -12 -8 -12h-139q-10 0 -10 -15q-6 -30 -6 -645q0 -27 10 -22q185 172 381 350q94 83 186 192q66 79 66 121q0 19 -23 19h-125q-8 0 -8 10v35q0 8 10 8h418
q12 0 12 -8v-33q0 -12 -8 -12h-100q-27 0 -49 -25q-190 -204 -287 -287q-68 -58 -264 -254q-16 -20 -9 -26q63 -49 148 -131q112 -108 283 -322q112 -141 129 -149q61 -62 98 -62h78q10 0 10 -10v-29z" />
    <glyph glyph-name="L" unicode="L" horiz-adv-x="1124" 
d="M1126 141q0 -9 -32 -63q-8 -21 -35 -66q-8 -12 -17 -12h-952q-12 0 -12 10v33q0 10 10 10h150q18 0 18 21q0 9 -3 121t1 496t4 403q0 213 -39 213h-113q-14 0 -14 12v29q0 12 12 12h541q10 0 10 -8v-35q0 -10 -8 -10h-201q-15 0 -18 -14t-10 -488q-6 -446 -6 -508
q0 -231 53 -231q323 0 371 4q156 13 251 71q24 15 29 15q10 -7 10 -15z" />
    <glyph glyph-name="M" unicode="M" horiz-adv-x="1858" 
d="M1786 10q0 -10 -10 -10h-457q-14 0 -14 10v33q0 10 10 10h108q25 0 25 25v512q0 395 -8 528q-2 29 -10 29q-6 0 -15 -19q-21 -43 -405 -919q-58 -130 -92 -221q-10 -17 -17 -17q-14 0 -18 15q-138 282 -285 585q-82 178 -227 471q-9 17 -16 17q-8 0 -9 -21
q-27 -399 -27 -583v-226q0 -176 48 -176h118q11 0 11 -8v-35q0 -10 -7 -10h-362q-12 0 -12 8v31q0 14 10 14h104q27 0 27 45q0 156 14 572q5 78 9 157q8 155 8 267q0 146 -101 196q-22 11 -90 17q-8 0 -8 8v37q0 8 8 8h264q18 0 25 -14q93 -184 201 -400q158 -340 342 -717
q17 -25 26 -8q112 255 240 541q124 286 254 579q10 19 31 19h256q10 0 10 -8v-35q0 -10 -6 -10h-99q-30 0 -36 -68q-7 -64 -7 -502q0 -322 7 -461q10 -223 59 -223h115q8 0 8 -10v-33z" />
    <glyph glyph-name="N" unicode="N" horiz-adv-x="1524" 
d="M1497 1319q0 -12 -10 -12h-139q-21 0 -21 -27q0 -8 -2 -272.5t-2 -286t-4 -357.5t-4 -354q0 -47 -12 -47q-14 0 -23 12q-91 122 -539 693q-159 213 -374 475q-14 12 -19 -8q-3 -13 -15 -367q-11 -358 -11 -449q0 -266 53 -266h133q10 0 10 -8v-37q0 -8 -8 -8h-393
q-13 0 -13 6v37q0 10 13 10h123q16 0 16 15v147q0 59 14.5 479t14.5 428q0 185 -127 185h-70q-8 0 -8 10v33q0 10 10 10h316q13 0 22 -16t165.5 -225.5t176.5 -233.5q224 -298 475 -615q4 -3 8 -3q7 0 9 28q1 19 0 354q-1 336 -2 363q-15 295 -72 295h-137q-13 0 -13 10v33
q0 10 11 10h436q12 0 12 -8v-33z" />
    <glyph glyph-name="O" unicode="O" horiz-adv-x="1479" 
d="M1403 709q0 -316 -152 -494q-53 -63 -88 -91q-73 -58 -190 -101q-94 -35 -244 -35q-239 0 -360 61q-88 44 -148 113q-74 84 -106 185q-39 121 -39 319q0 135 37 256q44 143 131 241t250 162q115 45 256 45q214 0 327 -51q127 -57 199 -156q127 -173 127 -454zM1245 655
q0 144 -33 252q-37 125 -118 217q-74 84 -176 127q-118 49 -236 49q-153 0 -221 -49q-124 -88 -170 -194q-62 -140 -62 -342q0 -298 111 -469q67 -104 201 -166q105 -49 229 -49q140 0 258 78q92 60 158 206q59 133 59 340z" />
    <glyph glyph-name="P" unicode="P" horiz-adv-x="1130" 
d="M1077 952q0 -152 -104 -262q-109 -115 -322 -115q-99 0 -231 35q-8 2 -8 -6v-325q0 -228 41 -228h180q12 0 12 -12v-27q0 -12 -6 -12h-539q-8 0 -8 8v31q0 12 10 12h138q16 0 16 25v1030q0 186 -25 186h-137q-14 0 -14 8v35q0 11 12 11h250q17 0 132.5 3t121.5 3
q110 0 180 -15q115 -23 201 -112q100 -104 100 -273zM920 938q0 133 -99 231q-116 117 -325 117q-58 0 -66 -2t-10 -20q-6 -53 -6 -308q0 -9 -1 -141.5t-1 -138.5q0 -13 14 -19q64 -24 192 -24q150 0 222 72q80 79 80 233z" />
    <glyph glyph-name="Q" unicode="Q" horiz-adv-x="1493" 
d="M1548 -391q0 -6 -10 -8q-135 -31 -324 -31q-46 0 -79 18q-101 56 -232 170q-120 106 -209 213q-15 19 -57 19q-146 0 -258 53q-91 43 -152 111q-151 169 -151 491q0 156 41 281q49 149 137 243q84 91 225 148q131 53 281 53q224 0 346 -59q104 -51 186 -168
q115 -164 115 -422q0 -331 -147 -506q-90 -106 -197 -160q-57 -28 -76 -36q-35 -13 -98 -27q-26 -3 -15 -17q73 -79 248 -192q128 -82 203 -113q81 -32 150 -32q26 0 63 6q10 0 10 -11v-24zM1249 657q0 120 -41 234q-37 104 -40 111q-28 63 -76 118q-71 81 -152 123
q-109 57 -248 57t-211 -43q-143 -86 -196 -208q-62 -143 -62 -326q0 -149 29 -256q45 -169 135 -266q74 -80 135 -111q107 -53 248 -53q124 0 195 35q147 72 223 237q61 134 61 348z" />
    <glyph glyph-name="R" unicode="R" horiz-adv-x="1393" 
d="M1384 12q0 -12 -8 -12h-325q-11 0 -25 12q-38 33 -140 168l-108 146q-60 90 -166 280q-7 17 -16 17q-47 0 -166 12q-16 5 -16 -10q0 -19 1 -126.5t1 -226.5q0 -219 45 -219h178q10 0 10 -10v-33q0 -10 -8 -10h-530q-9 0 -11 3t-2 7v31q0 9 3 10.5t8 1.5h131q16 0 16 31
v534v414q-2 275 -35 275h-127q-10 0 -10 8v37q0 8 8 8h299q14 0 114.5 4t112.5 4q65 0 127 -10q138 -22 222 -103q98 -93 98 -235q0 -162 -96 -266q-59 -64 -193 -109q-8 -4 -6 -12q44 -115 203 -295q83 -94 121 -135q67 -70 114 -105q64 -47 160 -47q16 0 16 -8v-31z
M899 967q0 133 -88 217q-123 116 -356 116q-34 0 -37 -14q0 -287 -4 -358v-228q0 -11 14 -14q23 -4 127 -4q43 0 96.5 8t48.5 8q199 52 199 269z" />
    <glyph glyph-name="S" unicode="S" horiz-adv-x="1030" 
d="M915 375q0 -166 -106 -273q-113 -112 -328 -112q-252 0 -356 92q-12 11 -12 41q0 7 -1 117t-1 118q0 13 14 13h41q12 0 14 -13t6 -63q6 -108 80 -176q35 -32 100 -54t117 -22q200 0 267 133q30 62 30 154q0 82 -57 141q-64 66 -223 123q-180 64 -256 129
q-101 85 -101 266q0 170 138 287q105 90 276 90q113 0 210 -38q62 -24 91 -50q14 -10 16 -27q11 -76 11 -204q0 -21 -6 -21h-48q-7 0 -10 12q-6 29 -14 76q-15 69 -70 100q-101 58 -233 58q-119 0 -176 -51q-60 -53 -60 -187q0 -82 56 -143q27 -30 105 -64q65 -26 130 -53
q129 -56 152 -69q75 -41 127 -99q77 -87 77 -231z" />
    <glyph glyph-name="T" unicode="T" horiz-adv-x="1253" 
d="M1221 1346q-9 -63 -31 -146q-4 -14 -12 -14q-10 0 -19 16q-23 45 -80 58q-99 22 -356 22q-16 0 -17 -13t-6 -466q-6 -435 -6 -465q0 -285 49 -285h172q7 0 7 -8v-35q0 -10 -7 -10h-550q-11 0 -11 10v33q0 10 11 10h161q19 0 19 26q-4 210 -4 230q0 17 5 337.5t5 334.5
q0 301 -35 301q-258 0 -364 -29q-77 -20 -99 -55q-11 -18 -20 -18q-13 0 -13 8q0 11 7 26q28 101 45 150q4 13 22 10q21 -3 206 -12q216 -10 349 -10q428 0 486 2q27 1 50.5 4.5t22.5 3.5q13 0 13 -16z" />
    <glyph glyph-name="U" unicode="U" horiz-adv-x="1544" 
d="M1458 1319q0 -12 -6 -12h-57q-77 0 -86 -2q-5 -19 -5 -44q-4 -64 -6 -200q-1 -193 5 -514q10 -576 -474 -576q-209 0 -339 45t-187 158q-47 94 -53 283q-4 123 -4 616q0 234 -39 234h-135q-11 0 -11 10v31q0 12 11 12h491q12 0 12 -8v-31q0 -14 -8 -14h-139
q-12 0 -14 -17q-6 -41 -6 -659q0 -215 12 -291q23 -143 133 -217t299 -74q188 0 301 113q86 86 86 340q0 336 -6 497q-12 308 -64 308h-129q-8 0 -10 3t-2 7v33q0 10 12 10h408q10 0 10 -10v-31z" />
    <glyph glyph-name="V" unicode="V" horiz-adv-x="1346" 
d="M1321 1317q0 -10 -6 -10h-64q-18 0 -28 -15q-103 -258 -230 -571q-111 -275 -282 -694q-20 -47 -31 -47q-13 0 -27 34q-204 511 -282 686q-55 133 -110 265q-96 228 -148 307q-28 35 -56 35h-34q-9 0 -11 3t-2 7v33q0 10 10 10h437q12 0 12 -8v-33q0 -12 -8 -12h-123
q-25 0 -25 -25q0 -18 11 -47q92 -223 196 -475q184 -468 201 -502q8 -21 15 -21q6 0 14 13q19 32 116 282q49 129 99 259q7 15 64 169.5t65 178.5q24 78 24 129q0 39 -31 39h-112q-14 0 -14 10v33q0 10 8 10h342q10 0 10 -8v-35z" />
    <glyph glyph-name="W" unicode="W" horiz-adv-x="2214" 
d="M2210 1317q0 -10 -10 -10h-70q-18 0 -31 -21q-7 -11 -116 -279q-106 -259 -115 -284q-132 -296 -309 -709q-15 -37 -27 -37t-25 33q-98 237 -229 570q-79 225 -150 378q-10 23 -14 23q-5 0 -10 -14q-5 -21 -168 -406q-193 -456 -240 -547q-14 -28 -24 -28q-17 0 -29 37
q-119 293 -246 608q-107 260 -225 545q-15 41 -63 114q-21 17 -46 17h-43q-10 0 -10 12v31q0 10 8 10h422q15 0 15 -12v-31q0 -10 -11 -10h-122q-21 0 -21 -17q0 -19 8 -39q181 -430 201 -483q159 -431 203 -516q11 -22 24 -2q79 180 166 381q149 333 170 422q5 21 -4 53
q-31 64 -68 145q-33 56 -59 56h-104q-11 0 -11 10v33q0 10 11 10h499q11 0 11 -10v-31q0 -12 -13 -12h-161q-13 0 -13 -15q0 -8 19 -49q43 -97 198 -495q84 -219 189 -482q10 -21 16 -21q5 0 12 13q31 54 112 245q42 98 83 195q79 173 147 410q23 78 23 154q0 45 -39 45h-98
q-13 0 -13 12v29q0 12 15 12h373q12 0 12 -12v-31z" />
    <glyph glyph-name="X" unicode="X" horiz-adv-x="1376" 
d="M1331 12q0 -8 -3 -10t-7 -2h-451q-8 0 -10 3t-2 7v33q0 10 10 10h140q18 0 8 25q-86 134 -185 289q-119 199 -149 229q-8 10 -12 10q-3 -1 -8 -4q-42 -34 -144 -147q-130 -146 -186 -238q-47 -78 -47 -121t37 -43h120q11 0 11 -10v-35q0 -8 -11 -8h-407q-15 0 -15 10v29
q0 14 15 14h88q10 0 33 39q75 130 280 352q112 121 199 201q11 11 -2 29q-97 144 -205 305q-68 110 -195 295q-26 33 -63 33h-72q-12 0 -12 8v35q0 10 10 10h477q13 0 13 -8v-31q0 -14 -8 -14h-132q-28 0 -28 -21q0 -19 24 -59q39 -63 117 -185q70 -115 168 -260
q15 -16 23 -8q76 79 161 207q78 117 111 201q18 47 18 92q0 33 -30 33h-125q-13 0 -13 12v31q1 5 2.5 7.5t10.5 2.5h397q12 0 12 -8v-35q0 -10 -8 -10h-94q-18 0 -29 -23q-60 -129 -176 -291q-127 -176 -211 -260q-12 -12 -4 -24q176 -253 205 -301q147 -244 203 -308
q40 -47 80 -47h59q12 0 12 -12v-29z" />
    <glyph glyph-name="Y" unicode="Y" horiz-adv-x="1212" 
d="M1198 1315q0 -8 -6 -8h-70q-26 0 -55 -47q-71 -117 -172 -285q-97 -153 -201 -322q-10 -22 -10 -32q0 -4 -1 -185t-1 -196q0 -187 39 -187h172q5 0 7.5 -2t2.5 -10v-33q0 -8 -8 -8h-539q-14 0 -14 12v27q0 14 12 14h164q17 0 17 25l-3 534q0 30 -10 43q-17 23 -184 301
q-72 122 -197 308q-35 43 -82 43h-36q-9 0 -11 3t-2 7v29q0 14 13 14h448q14 0 14 -12v-31q0 -10 -8 -10h-115q-26 0 -26 -21q0 -15 12 -41q62 -104 148 -250q120 -214 157 -266q12 -17 21 -6q35 45 119.5 188t111.5 203q45 98 45 168q0 25 -26 25h-88q-9 0 -9 8v35
q0 10 9 10h354q8 0 8 -8v-37z" />
    <glyph glyph-name="Z" unicode="Z" horiz-adv-x="1350" 
d="M1266 274q0 -10 -52 -163q-14 -43 -36 -107q-9 -22 -31 -27q-33 -4 -86 -4q-10 0 -338 17q-205 10 -379 10q-90 0 -176 -6q-26 -2 -48 -5q-18 -3 -22 -3q-18 0 -18 14q2 20 22 43q47 75 332 438q209 249 455 543q100 122 119 160q6 12 1 15t-34 1q-139 -8 -430 -8
q-59 0 -149 2t-101 2q-114 0 -137 -12q-35 -19 -29 -19q-18 0 -18 15q0 5 43 86q25 47 41 84q9 12 24 10q213 -27 531 -27q15 0 157 2t150 2q27 0 88 6.5t59 6.5q21 0 21 -17q0 -11 -15 -28q-242 -293 -503 -607q-48 -51 -187 -224q-176 -218 -250 -333q-10 -16 -7 -21
q3 -4 18 1q79 18 286 18q111 0 283 -10t170 -10q138 0 190 114q22 48 29 48h21q6 -2 6 -7z" />
    <glyph glyph-name="bracketleft" unicode="[" horiz-adv-x="733" 
d="M721 -497q0 -12 -10 -12h-459q-29 0 -29 28v1943q0 23 19 23h465q14 0 14 -8v-33q0 -12 -12 -12h-254q-35 0 -66 4q-10 1 -13 -4.5t-1 -16.5q6 -37 6 -67v-1673q0 -6 -4 -109q-1 -16 3 -22t15 -4q33 4 45 4h269q12 0 12 -8v-33z" />
    <glyph glyph-name="backslash" unicode="\" horiz-adv-x="598" 
d="M590 -80q0 -3 -17 -14q-9 -4 -26 -4q-13 12 -21 35q-32 89 -253 748q-221 663 -246 745q-10 32 -7 36q0 4 17 15q9 4 26 4q13 -13 21 -35q263 -752 500 -1493q15 -27 6 -37z" />
    <glyph glyph-name="bracketright" unicode="]" horiz-adv-x="733" 
d="M506 -481q0 -28 -29 -28h-457q-10 0 -10 12v33q0 8 13 8h268q10 0 45 -4q11 -1 14.5 4.5t1.5 21.5q0 14 -1 52t-1 57v1673q0 43 4 67q2 10 0 16q-3 6 -12 5q-29 -4 -66 -4h-253q-13 0 -13 12v33q0 8 15 8h462q19 0 19 -23v-1943z" />
    <glyph glyph-name="asciicircum" unicode="^" horiz-adv-x="778" 
d="M700 1038q-3 -11 -10 -28q-9 -6 -16 -9q-7 9 -23 25q-97 86 -268 262l-8 17l-8 -17q-42 -51 -134 -136q-110 -100 -135 -126q-7 -11 -22 -25q-3 1 -17 9q-8 12 -10 28q-2 9 17 35q100 149 260 379q7 11 22 27q3 0 17 -11q3 -4 10 -10q4 2 10 10q10 10 16 11q5 -3 23 -27
q98 -143 260 -379q18 -26 16 -35z" />
    <glyph glyph-name="underscore" unicode="_" horiz-adv-x="770" 
d="M774 -348q-10 -17 -29 -17h-716q-19 0 -29 17q-12 19 0 41q11 21 29 20q452 -7 716 0q18 1 29 -20q12 -22 0 -41z" />
    <glyph glyph-name="grave" unicode="`" horiz-adv-x="545" 
d="M492 997q-17 -10 -52 7q-134 63 -317 167q-29 17 -43 31q-10 10 10 10q89 0 135 7q16 2 31 -11q83 -64 221 -172q32 -25 15 -39z" />
    <glyph glyph-name="a" unicode="a" 
d="M874 66q0 -5 -4 -13q-57 -57 -82 -73q-9 -7 -18 -7q-59 0 -117 55q-54 51 -80 122q-6 18 -16 4q-11 -17 -56 -58t-63 -51q-98 -57 -178 -57q-76 0 -113 26q-57 42 -57 125q0 98 62 185q44 62 137 104q101 46 270 78q9 2 10 22q7 153 0 207q-6 53 -46 79t-113 26
q-103 0 -144 -25q-24 -17 -20 -35v-28q0 -44 -23 -78q-36 -56 -84 -56q-35 0 -35 46q0 39 45 97t99 91q97 59 266 59q112 0 162 -47q37 -34 37 -143q0 -79 -9.5 -238t-9.5 -180q0 -99 51 -160q37 -43 115 -65q14 -6 14 -12zM565 440q0 19 -16 19q-78 0 -174 -43
q-162 -73 -162 -197q0 -76 37 -104q31 -25 98 -25q90 0 178 78q24 21 27 51q12 119 12 221z" />
    <glyph glyph-name="b" unicode="b" horiz-adv-x="1087" 
d="M1022 444q0 -220 -137 -350q-117 -110 -291 -110q-144 0 -252 51q-56 26 -80 26q-23 0 -43 -51q-8 -27 -16 -55q-7 -21 -17 -21h-8q-14 0 -14 35q0 7 2 369.5t2 390.5q0 186 2 349.5t2 154.5q0 179 -43 179h-109q-12 0 -12 12v24q0 17 10 17h35q142 0 223 37q28 12 41 12
q9 0 12 -10q1 -6 1 -21q0 -1 -10.5 -318t-10.5 -385q0 -22 13 -14q149 99 156 103q85 46 167 46q171 0 277 -131q100 -124 100 -340zM903 391q0 173 -92 291q-77 98 -260 98q-146 0 -234 -67q-8 -8 -8 -23v-348q0 -156 19 -244q1 -7 12 -14q25 -16 103 -31.5t143 -15.5
q137 0 231 92q86 85 86 262z" />
    <glyph glyph-name="c" unicode="c" 
d="M858 164q0 -15 -49 -53q-161 -125 -346 -125q-110 0 -174 34q-96 52 -166 177q-57 101 -57 256q0 104 24 194q32 118 123 197q99 86 274 86q156 0 263 -103q57 -55 57 -100q0 -47 -37 -47q-50 0 -102 51q-47 47 -64 105q-7 24 -45.5 30t-77.5 6q-50 0 -82 -6
q-83 -16 -131 -69q-80 -89 -80 -279q0 -194 129 -330q58 -60 142 -78q43 -10 135 -10q124 0 211 62q12 8 29 20q4 2 12 2q12 -11 12 -20z" />
    <glyph glyph-name="d" unicode="d" horiz-adv-x="1092" 
d="M1102 117q0 -18 -8 -21q-79 -26 -220 -90q-85 -39 -79 -39q-15 0 -15 23q0 8 3 45t3 45q0 33 -4 61q-5 16 -22 9q-58 -44 -139 -103q-90 -59 -222 -59q-83 0 -141 32q-90 51 -135 152q-57 129 -57 274q0 246 124 369q108 107 277 107q92 0 161 -25q40 -15 126 -63
q14 -9 14 18q0 10 -2 188.5t-2 194.5q0 177 -39 177h-139q-11 0 -11 12v26q0 15 11 15h47q131 0 215 35q53 22 55 22q12 0 12 -26q0 -3 -3 -127.5t-3 -147.5v-940q0 -199 39 -187q71 23 101 35q34 14 43 14q10 0 10 -26zM780 250q0 -9 -1 103.5t-1 199.5q0 129 -16 209
q-6 27 -31 41q-107 57 -246 57q-141 0 -211 -82q-88 -103 -88 -297q0 -76 29 -160q24 -72 51 -106q48 -60 92 -81q50 -23 142 -23q141 0 266 92q14 10 14 47z" />
    <glyph glyph-name="e" unicode="e" horiz-adv-x="877" 
d="M846 135q0 -2 -2 -6q-31 -31 -52 -46q-37 -26 -100 -54q-101 -45 -219 -45q-176 0 -280 104q-127 127 -127 309q0 130 14 191q35 149 123 235q102 101 252 101q72 0 118 -23q36 -17 115 -74q94 -67 127 -139q8 -18 8 -31q0 -11 -18 -18q-38 -15 -223 -49
q-211 -39 -281 -39q-6 0 -47.5 -1t-48.5 -1q-12 0 -12 -47q0 -207 151 -338q81 -70 266 -70q95 0 156 21q43 14 59 30q3 2 9 5q5 0 8 -7q2 -3 4 -8zM659 670q0 8 -10 26q-43 76 -108 126t-150 50q-63 0 -121 -77q-21 -29 -45 -89q-26 -65 -26 -100q0 -16 12 -16
q-10 0 172 14q173 14 260 47q16 7 16 19z" />
    <glyph glyph-name="f" unicode="f" horiz-adv-x="592" 
d="M662 1437q0 -53 -64 -53q-70 0 -139 69q-16 10 -25 10q-38 0 -72 -38q-53 -63 -53 -197q0 10 -1 -94t-1 -204q0 -21 12 -21q21 0 218 2q10 0 10 -10v-45q0 -12 -10 -12q-7 0 -107 2t-104 2q-17 0 -17 -14q0 -6 2 -283.5t2 -292.5q0 -207 39 -207h180q11 0 11 -8v-33
q0 -10 -8 -10h-506q-11 0 -11 6v37q1 5 2.5 7.5t10.5 2.5h137q14 0 14 17q0 6 -3 130t-3 136v485q0 25 -12 25t-82 -2q-6 0 -8 2t-2 12v35q0 16 12 16q4 0 37 1t44 1t11 15v283q0 149 113 242q86 72 225 72q59 0 106 -32q42 -29 42 -54z" />
    <glyph glyph-name="g" unicode="g" horiz-adv-x="971" 
d="M952 -179q0 -112 -114 -216q-140 -127 -430 -127q-198 0 -299 82q-84 68 -84 157q0 98 84 187q27 30 143 76q28 17 -2 21q-65 17 -84 27q-49 27 -49 82q0 56 45 94l90 64q13 11 -12 25q-40 21 -88 67q-78 75 -78 220q0 148 94.5 248t267.5 100q102 0 180 -15
q57 -10 177 -10q74 0 106 15q8 2 20.5 9t14.5 7q10 0 10 -23q0 -46 -35 -90q-12 -12 -51 -12q-40 0 -117 10q-34 5 -34 -6q0 -7 8 -16q73 -87 73 -197q0 -141 -105 -244.5t-265 -103.5q-53 0 -94 12q-12 4 -23 -4q-25 -14 -49 -27q-31 -21 -31 -48q0 -36 23 -48
q13 -8 59 -13q69 -8 129 -8q327 0 442 -105q78 -71 78 -190zM643 545q0 154 -72 229q-83 88 -190 88q-101 0 -135 -51q-43 -65 -43 -166q0 -128 43 -209q70 -131 207 -131q94 0 139 57q51 67 51 183zM840 -234q0 34 -24 72q-31 50 -87 73q-131 53 -303 53q-156 0 -227 -70
q-76 -74 -76 -171q0 -82 78 -132q94 -62 260 -62q182 0 278 76q58 45 77 73q24 35 24 88z" />
    <glyph glyph-name="h" unicode="h" horiz-adv-x="1083" 
d="M1073 8q0 -8 -10 -8h-412q-10 0 -10 10v29q0 14 10 14h92q14 0 17 25q12 98 12 237q0 84 -2 169t-2 79q0 129 -35 180q-37 56 -151 56q-146 0 -238 -62q-12 -8 -12 -26q0 -3 1 -200.5t1 -209.5q0 -250 41 -250h137q8 0 8 -8v-35q0 -8 -8 -8h-455q-10 0 -10 8v33
q0 12 12 12h121q15 0 15 17v1108q0 234 -31 234h-129q-5 0 -7.5 1.5t-2.5 10.5v31q0 5 1.5 7.5t10.5 2.5h43q50 0 170 26q77 31 82 31q16 0 16 -33q0 9 -9 -291t-9 -393q0 -27 12 -19q22 14 70 48q26 19 75 49q99 47 185 47q89 0 157 -64q78 -72 78 -219q0 -8 -4 -187
t-4 -192q0 -215 27 -215h137q10 0 10 -10v-35z" />
    <glyph glyph-name="i" unicode="i" horiz-adv-x="555" 
d="M365 1276q0 -53 -48 -94q-41 -35 -77 -35q-66 0 -66 65q0 39 33 79q40 48 98 48q60 0 60 -63zM530 10q0 -10 -12 -10h-475q-10 0 -10 12v31q0 14 8 14h145q19 0 19 21q0 6 1 242.5t1 261.5q0 156 -3 187q-11 93 -54 93h-99q-16 0 -16 10v35q0 13 10 13h59q93 0 179 8
q64 6 59 6q23 0 23 -31q0 -3 -7.5 -297.5t-7.5 -308.5q0 -240 49 -240h121q10 0 10 -10v-37z" />
    <glyph glyph-name="j" unicode="j" horiz-adv-x="504" 
d="M369 1262q0 -53 -50 -92q-44 -35 -90 -35q-59 0 -59 71q0 45 47 86t94 41q58 0 58 -71zM360 877q0 -8 -9 -447.5t-9 -451.5q0 -201 -41 -297q-39 -92 -111 -145q-73 -56 -170 -56q-133 0 -133 91q0 26 24.5 46.5t63.5 20.5q34 0 76 -45q37 -39 49 -39q52 0 74 86
q10 38 25 242q6 84 6 784q0 190 -62 190h-110q-15 0 -15 10v37q0 10 9 10h110q76 0 107 7q23 1 57 4q31 4 33 4q26 0 26 -51z" />
    <glyph glyph-name="k" unicode="k" horiz-adv-x="1106" 
d="M1096 12q0 -12 -6 -12h-259q-10 0 -22 12q-6 4 -82 99t-84 106q-15 22 -145 178q-17 20 -25 13q-49 -33 -119 -78q-12 -8 -12 -31q0 -248 35 -248h151q13 0 13 -8v-31q0 -12 -9 -12h-489q-12 0 -12 10v31q0 12 10 12h139q15 0 15 15v1096q0 248 -39 248h-121q-12 0 -12 8
v32q0 11 12 11h80q75 0 143 20q13 4 43 17q20 10 33 10q16 0 16 -33q0 -3 -4 -529t-4 -534q0 -29 14 -21q61 35 185 137q140 117 227 215q47 54 47 93q0 32 -41 32h-104q-8 0 -8 11v30q0 11 8 11h166q47 0 86 2q13 0 34 3q18 3 25 3q16 0 16 -23q0 -18 -20 -43
q-41 -59 -150 -168q-13 -13 -225 -188q-10 -11 4 -23q9 -7 86 -95.5t85.5 -99.5t150.5 -175q53 -62 82 -62h75q11 0 11 -10v-31z" />
    <glyph glyph-name="l" unicode="l" horiz-adv-x="551" 
d="M535 8q0 -8 -11 -8h-497q-13 0 -13 10v35q0 12 11 12h163q21 0 21 23v1110q0 222 -39 222h-123q-12 0 -12 12v33q0 14 8 14h78q70 0 147.5 20.5t67.5 20.5q18 0 18 -29q0 -3 -6 -593t-6 -611q0 -222 37 -222h145q11 0 11 -10v-39z" />
    <glyph glyph-name="m" unicode="m" horiz-adv-x="1589" 
d="M1575 8q0 -8 -12 -8h-408q-10 0 -10 10v31q0 12 10 12h94q16 0 19 17q10 54 10 440q0 190 -41 242q-49 61 -150 61q-131 0 -210 -82q-9 -11 -9 -26v-441q0 -211 29 -211h119q8 0 8 -10v-33q0 -10 -8 -10h-391q-11 0 -11 8v35q0 10 9 10h98q14 0 14 19q0 6 -1 289t-1 296
q0 164 -162 164q-151 0 -231 -80q-12 -12 -12 -26v-455q0 -209 34 -209h121q11 0 11 -8v-33q0 -10 -9 -10h-428q-8 0 -10 3t-2 7v29q0 14 12 14h119q19 0 19 25q0 4 -4.5 309.5t-4.5 319.5q0 163 -41 163h-104q-12 0 -12 11v30q0 11 10 11h139q32 0 84 6q8 1 28 5.5t25 4.5
q15 0 15 -16q0 -5 -2 -54t-2 -57q0 -25 14 -16q17 13 111 71q22 16 69 39q72 25 139 25q78 0 132 -45q42 -36 57 -97q5 -20 20 -8q50 49 78 66q15 13 72 49q50 27 149 27q102 0 172 -70q78 -77 78 -313q0 -10 -6 -177.5t-6 -175.5q0 -133 22 -133h140q8 0 8 -10v-35z" />
    <glyph glyph-name="n" unicode="n" horiz-adv-x="1092" 
d="M1075 12q0 -12 -8 -12h-422q-10 0 -10 8v35q0 10 10 10h107q13 0 18 17q14 105 14 465q0 168 -51.5 217t-157.5 49q-134 0 -221 -60q-14 -9 -14 -26q-6 -43 -6 -453q0 -209 31 -209h137q10 0 10 -10v-35q0 -8 -10 -8h-449q-5 0 -7.5 2t-2.5 10v33q0 8 10 8h127
q15 0 15 19q0 6 3 319.5t3 329.5q0 149 -31 149h-121q-12 0 -12 13v30q0 9 8 9h129q11 0 52.5 2t43.5 2q10 1 31 5.5t29 4.5q14 0 14 -23q0 -5 -2 -52t-2 -54q0 -31 12 -19q86 70 166 105q76 33 146 33q107 0 178 -70q76 -74 76 -276q0 -67 -6.5 -226.5t-6.5 -156.5
q0 -146 21 -146h137q12 0 12 -6v-33z" />
    <glyph glyph-name="o" unicode="o" horiz-adv-x="1006" 
d="M940 463q0 -130 -43 -232q-50 -118 -182 -192q-91 -51 -211 -51q-136 0 -193 24q-122 54 -183.5 178.5t-61.5 264.5q0 154 67 272q61 106 172 162q86 43 244 43q128 0 203 -47q98 -62 145 -176q43 -105 43 -246zM799 414q0 208 -99 325q-101 121 -264 121q-85 0 -116 -14
q-21 -9 -48 -47q-59 -86 -59 -256q0 -177 63 -324q44 -101 117 -145q64 -39 142 -39q90 0 139 28q59 35 96 134q29 75 29 217z" />
    <glyph glyph-name="p" unicode="p" horiz-adv-x="1108" 
d="M1042 455q0 -209 -131 -338q-61 -61 -121 -86q-86 -37 -225 -37q-100 0 -229 67q-21 11 -21 -8v-276q0 -67 10 -138q13 -105 40 -105h198q8 0 8 -9v-32q0 -13 -6 -13h-538q-13 0 -13 9v34q0 11 13 11h135q16 0 16 16q0 8 2 549t2 560q0 207 -32 207h-125q-13 0 -13 11v32
q0 11 8 11h97q88 0 137 6q8 1 32 6q20 4 25 4q11 0 11 -25q0 -6 -3.5 -61.5t-3.5 -65.5q0 -29 4 -29t9 5q67 63 166 121q80 47 176 47q137 0 243 -109q129 -131 129 -364zM913 412q0 71 -34 155q-32 81 -74 123q-94 94 -242 94q-112 0 -160 -24q-32 -17 -81 -53
q-7 -8 -7 -25v-549q0 -22 9 -29q110 -55 274 -55q170 0 263 140q52 77 52 223z" />
    <glyph glyph-name="q" unicode="q" horiz-adv-x="1069" 
d="M1092 -380q0 -14 -13 -17q-91 -26 -235 -73q-85 -35 -76 -35q-16 0 -16 20q0 8 8 45q18 81 20 205q2 98 2 370q0 33 -24 8q-49 -48 -117 -86q-134 -73 -223 -73q-113 0 -181 45q-30 21 -79 84q-92 118 -92 348q0 202 120 337.5t295 135.5q118 0 238 -70q105 -61 108 -61
q38 0 58 117q5 28 24 28t19 -28q0 -5 -7.5 -557t-7.5 -573q0 -174 35 -170q7 1 105 28q21 6 32 6q7 0 7 -10v-24zM786 246q0 385 -16 510q-3 14 -16 35q-25 18 -108 42q-99 29 -177 29q-86 0 -133 -31q-25 -17 -66 -71q-80 -108 -80 -266q0 -101 43 -199q34 -77 66 -105
q87 -73 197 -73q100 0 181 30q69 27 95 62q14 14 14 37z" />
    <glyph glyph-name="r" unicode="r" horiz-adv-x="745" 
d="M727 825q-11 -65 -31 -125q-5 -16 -14 -16q-11 0 -18 10q-26 37 -46 51q-39 31 -100 31q-113 0 -170 -49q-10 -9 -10 -27q0 -6 -1 -231t-1 -238q0 -178 33 -178h196q13 0 13 -14v-29q0 -10 -9 -10h-512q-14 0 -14 10v29q0 14 12 14h121q19 0 19 19v657q0 137 -33 137
h-123q-10 0 -10 11v32q0 11 10 11h137q72 0 92 6q55 16 60 16q14 0 14 -27q0 -7 -2 -59.5t-2 -58.5q0 -29 12 -17q46 40 105 88q73 54 143 54q81 0 125 -68q9 -14 4 -29z" />
    <glyph glyph-name="s" unicode="s" horiz-adv-x="811" 
d="M739 258q0 -109 -61 -182q-76 -90 -254 -90q-190 0 -322 104q-14 11 -14 43q-4 41 -4 176q0 19 16 19q17 0 21 -15q0 -4 8 -28q8 -28 10 -39q25 -87 94 -172q19 -22 33 -25q48 -8 156 -8q107 0 170 55q49 43 49 119q0 45 -37 78q-51 45 -133 63q-9 3 -58 20.5t-59 20.5
q-116 51 -167 101q-72 70 -72 180q0 89 63 156q80 84 232 84q186 0 276 -91q8 -8 8 -24v-144q0 -22 -10 -22q-12 0 -18 12q-38 83 -84 180q-9 17 -23 19q-44 12 -137 12q-88 0 -143 -33q-64 -37 -64 -110q0 -118 164 -166q50 -15 147 -47q92 -31 146 -80q67 -62 67 -166z
" />
    <glyph glyph-name="t" unicode="t" horiz-adv-x="725" 
d="M690 121q0 -15 -8 -23q-41 -33 -107 -63q-113 -53 -210 -53q-209 0 -209 213q0 13 4 222t4 220q0 13 -2 86.5t-2 77.5q0 21 -19 30q-15 8 -78 35q-13 6 -12 23q0 13 15 24q100 85 213 179q15 10 26 10q16 0 10 -29q-12 -65 -12 -133q0 -33 10 -33q9 0 173 5.5t169 5.5
q21 0 15 -21q0 -20 -15 -57q-5 -15 -18 -15q-9 0 -163.5 1t-160.5 1q-12 0 -12 -10v-555q0 -87 25 -127q27 -45 151 -45q68 0 160 31q40 18 43 18q10 0 10 -18z" />
    <glyph glyph-name="u" unicode="u" horiz-adv-x="1083" 
d="M1006 41q0 -9 -9 -14q-25 -10 -63 -27q-10 -6 -31 -20q-6 -7 -18 -7q2 0 -27 15q-53 33 -86 149q-5 17 -20 4q-33 -27 -185 -116q-62 -37 -207 -37q-82 0 -133 71q-47 67 -47 156v395q0 252 -41 252h-119q-14 0 -14 10v33q0 10 8 10h123q5 0 49.5 3.5t53.5 3.5q73 8 65 8
q17 0 17 -27q0 -2 -2.5 -305.5t-2.5 -329.5q0 -94 42 -130q36 -32 122 -32t271 82q10 0 10 17v514q0 139 -41 139h-119q-12 0 -12 10v33q0 10 8 10h129q61 0 104 7q58 8 60 8q14 0 14 -29q0 -4 -2 -314.5t-2 -326.5q0 -141 92 -199q13 -7 13 -16z" />
    <glyph glyph-name="v" unicode="v" horiz-adv-x="940" 
d="M938 868q0 -8 -6 -8h-49q-14 0 -23 -20q-23 -55 -63 -150q-113 -264 -242 -561q-16 -41 -41 -100q-18 -37 -29 -37q-8 0 -15 16t-13 31q-3 10 -100 233.5t-208 494.5q-35 93 -69 93h-57q-13 0 -13 10v33q0 10 13 10h395q10 0 10 -10v-33q0 -10 -8 -10h-121q-14 0 -14 -20
q0 -13 8 -39q3 -11 47 -121q89 -219 184 -442q15 -23 19 -23q5 0 14 16q27 51 125 299q76 192 76 287q0 43 -27 43h-98q-10 0 -10 10v31q0 12 10 12h293q12 0 12 -10v-35z" />
    <glyph glyph-name="w" unicode="w" horiz-adv-x="1595" 
d="M1585 870q0 -10 -10 -10h-59q-22 0 -39 -49q-6 -16 -160 -362q-4 -11 -94 -216t-99 -221q-15 -43 -30 -43q-14 0 -31 43q-63 152 -131 320q-54 133 -113 278q-10 27 -24 2q-36 -59 -148 -331q-56 -134 -117 -279q-12 -33 -26 -33q-13 0 -31 45q-96 226 -197 467
q-67 159 -139 328q-20 51 -49 51h-68q-10 0 -10 10v33q0 5 2 7.5t11 2.5h372q13 0 13 -8v-37q0 -8 -9 -8h-98q-14 0 -14 -16q0 -19 12 -41q47 -111 102 -238q6 -16 69 -176q64 -164 71 -178q9 -19 24 4q17 33 109 244q90 207 96 227q3 16 -6 35q-30 64 -37 86q-27 53 -55 53
h-82q-10 0 -10 8v33q0 12 10 12h391q10 0 10 -10v-33q0 -10 -6 -10h-102q-13 0 -13 -18q0 -13 13 -43q53 -133 127 -305q54 -141 120 -304q15 -25 25 -2q13 25 105 244q85 205 98 238q31 82 31 141q0 49 -31 49h-105q-12 0 -12 12v31q0 10 10 10h324q10 0 10 -8v-35z" />
    <glyph glyph-name="x" unicode="x" horiz-adv-x="1083" 
d="M1073 10q0 -10 -6 -10h-455q-10 0 -10 10v33q0 10 8 10h123q19 0 19 15q0 18 -15 38l-207 295q-10 15 -20 9q-36 -25 -97.5 -86t-84.5 -95q-70 -98 -70 -129q0 -49 35 -49h108q9 0 9 -10v-29q0 -12 -13 -12h-372q-9 0 -11 3t-2 7v31q0 12 11 12h90q17 0 32 27
q12 27 31 57q48 78 170 193q70 66 135 114q13 10 2 25q-80 110 -135 180q-103 132 -135 168q-38 43 -84 43h-61q-9 0 -9 10v31q0 12 9 12h448q8 0 8 -10v-35q0 -8 -10 -8h-104q-23 0 -23 -18q0 -19 25 -51q71 -102 168 -234q11 -14 20 -4q82 65 158 178q43 65 43 94
q0 35 -37 35h-98q-9 0 -9 8v35q0 10 13 10h368q9 0 9 -8v-35q0 -10 -11 -10h-78q-23 0 -49 -37q-84 -123 -176 -209q-49 -46 -108 -98q-11 -11 4 -29q100 -140 217 -301q21 -34 59 -77q50 -58 74 -58h88q6 0 6 -6v-35z" />
    <glyph glyph-name="y" unicode="y" horiz-adv-x="958" 
d="M948 872q0 -8 -3 -10t-7 -2h-55q-18 0 -27 -18q-28 -45 -133 -344q-34 -101 -227 -572q-113 -262 -193 -400q-7 -13 -26 -18q-6 -2 -117 -17q-92 -12 -90 -12q-19 0 -19 14q0 11 19 19q98 41 196 172q148 194 187 296q5 13 -7 36q-85 170 -208 486q-44 110 -121 284
q-25 74 -58 74h-36q-13 0 -13 12v31q0 5 2 7.5t11 2.5h383q10 0 10 -10v-35q0 -8 -10 -8h-123q-21 0 -21 -22q0 -7 10.5 -39.5t112.5 -274.5q65 -165 139 -346q9 -17 19 2q66 137 121 314q69 227 69 288q0 78 -37 78h-94q-14 0 -14 8v35q0 10 10 10h338q9 0 10.5 -3t1.5 -7
v-31z" />
    <glyph glyph-name="z" unicode="z" horiz-adv-x="995" 
d="M952 139q0 -4 -12 -43t-12 -43q-4 -20 -10 -37q-9 -16 -23 -16h-834q-24 0 -24 20q0 13 18 35q48 59 324 312q230 210 326 319q59 67 59 88q0 17 -33 17h-323q-123 0 -170 -9q-47 -2 -119 -20q-22 -17 -31 -17q-10 0 -10 13q0 -15 14 76q8 50 17 75q2 13 22 13
q3 0 32.5 -2t36.5 -2t313.5 -7.5t320.5 -7.5t52.5 3t39.5 3q16 0 16 -14q0 -10 -14 -31q-54 -61 -131 -149q-145 -169 -355 -359q-117 -105 -182 -178q-29 -32 -29 -41q0 -18 33 -18h293q186 0 293 12q31 4 60 13.5t32 9.5q10 0 10 -15z" />
    <glyph glyph-name="braceleft" unicode="{" horiz-adv-x="666" 
d="M694 -512q0 -8 -14 -8h-195q-159 0 -244 121q-73 106 -73 274q0 105 35 241.5t35 233.5q0 49 -52 89q-47 36 -92 36q-41 0 -41 33t41 33q48 0 92 26q52 31 52 78q0 97 -35 218.5t-35 226.5q0 159 86 273q91 122 231 122h195q14 0 14 -8v-33q0 -12 -12 -12h-131
q-117 0 -184 -123q-60 -110 -60 -271q0 -100 23.5 -215.5t23.5 -173.5q0 -105 -151 -143l88 -52q63 -47 63 -108q0 -57 -23.5 -188.5t-23.5 -231.5q0 -166 54 -270q64 -123 190 -123h131q12 0 12 -12v-33z" />
    <glyph glyph-name="bar" unicode="|" horiz-adv-x="590" 
d="M334 -363q0 -18 -17 -29q-18 -12 -41 0q-20 11 -20 29q4 220 4 905q1 745 -4 938q0 17 20 29q23 12 41 0q17 -11 17 -29v-1843z" />
    <glyph glyph-name="braceright" unicode="}" horiz-adv-x="666" 
d="M610 508q0 -33 -41 -33q-44 0 -91 -36q-52 -40 -52 -89q0 -97 35 -233.5t35 -241.5q0 -168 -74 -274q-84 -121 -244 -121h-194q-15 0 -15 8v33q0 12 13 12h131q125 0 189 123q54 104 54 270q0 100 -23.5 231.5t-23.5 188.5q0 61 64 108l88 52q-152 38 -152 143
q0 58 23.5 173.5t23.5 215.5q0 161 -59 271q-67 123 -184 123h-131q-13 0 -13 12v33q0 8 15 8h194q141 0 232 -122q86 -114 86 -273q0 -105 -35 -226.5t-35 -218.5q0 -47 52 -78q43 -26 91 -26q41 0 41 -33z" />
    <glyph glyph-name="asciitilde" unicode="~" horiz-adv-x="596" 
d="M582 512q4 -13 -13 -37q-57 -84 -174 -84q-60 0 -123 35q-107 59 -151 59q-29 0 -55 -26q-10 -13 -27 -31q-13 -5 -25 31q-6 12 11 37q54 84 174 84q49 0 120 -35q122 -60 154 -60q31 0 55 27q10 12 29 31q7 4 25 -31z" />
    <glyph glyph-name="nonbreakingspace" unicode="&#xa0;" horiz-adv-x="219" 
 />
    <glyph glyph-name="exclamdown" unicode="&#xa1;" horiz-adv-x="416" 
d="M104 242q0 154 35 394q29 204 49 273q8 27 27 27q23 0 23 -37q0 -22 -2 -37q-11 -75 -11 -203q0 -325 51 -641q15 -88 15 -86q0 -26 -27 -26q-26 0 -51 14q-29 13 -72 35q-25 14 -28 35q-9 46 -9 252zM121 1147q0 36 25 63t69 27q82 0 82 -84q0 -88 -90 -88q-86 0 -86 82
z" />
    <glyph glyph-name="cent" unicode="&#xa2;" 
d="M788 463q0 -12 -45 -47q-143 -113 -311 -113q-41 0 -60 2l-40 -137l-46 6l41 139q-16 6 -51 21q-85 43 -149 160q-51 92 -51 229q0 95 22 174q31 109 111 178q89 78 245 78q71 0 125 -20l60 188l35 -6l-60 -199q37 -18 76 -55q53 -50 53 -90q0 -43 -35 -43q-47 0 -92 45
q-19 19 -33 41l-176 -596q39 -12 144 -12q112 0 190 55q10 7 25 18q4 2 12 2q10 -9 10 -18zM559 1065q-14 14 -39 31q-24 4 -70 4q-53 0 -71 -4q-74 -17 -113 -64q-70 -82 -70 -250q0 -176 113 -297q29 -30 59 -49z" />
    <glyph glyph-name="sterling" unicode="&#xa3;" horiz-adv-x="1027" 
d="M982 153q0 -81 -62 -128.5t-168 -47.5q-217 0 -340 127q-102 -106 -207 -106q-185 0 -170 145q7 68 68 111t139 43q103 0 198 -57q21 55 26 151q4 83 -32 192q-73 -4 -187 -16q-18 -3 -20 10q-12 29 -11 53q2 15 12 15l177 1q-8 17 -28 53q-84 143 -84 267q0 14 1 25
q19 163 117 259q95 94 233 95q129 1 220 -65q38 -27 73 -75q39 -54 35 -85q-1 -2 -8.5 -10t-13.5 -9q-3 0 -15 19q-85 135 -213 134q-99 -1 -145 -27q-51 -30 -89 -93q-57 -77 -49 -217q6 -88 58 -217q8 -17 22 -53l293 -6q10 0 8 -12q-1 -26 -5 -35q0 -8 -9 -8l-267 -2
q31 -87 22 -145q-23 -163 -72 -228q76 -52 153 -104q92 -57 155 -57q125 0 125 97q0 71 -110 71q-65 0 -97 -48q-17 -26 -34 -26q-22 0 -22 20l22 32q19 27 63.5 48.5t81.5 21.5q156 0 156 -113zM375 139q-80 80 -146 80q-118 0 -129 -80q-3 -94 109 -94q89 0 166 94z" />
    <glyph glyph-name="currency" unicode="&#xa4;" horiz-adv-x="1006" 
d="M920 959q0 -31 -110 -135q84 -104 84 -288q0 -204 -124 -310q150 -147 150 -156q0 -15 -24 -37.5t-40 -22.5q-32 0 -188 151q-61 -31 -163 -31q-145 0 -218 44q-171 -159 -182 -159q-15 0 -36 25t-21 41q0 32 151 173q-86 115 -86 275q0 162 92 278q-157 153 -157 164
q0 15 24 37t40 22q33 0 185 -147q94 53 213 53q145 0 208 -36q137 125 145 125q15 0 36 -25t21 -41zM768 495q0 162 -80 263q-87 111 -244 111q-64 0 -83 -5q-36 -9 -63 -46q-53 -74 -53 -215q0 -164 61 -280q77 -145 226 -145q236 0 236 317z" />
    <glyph glyph-name="yen" unicode="&#xa5;" horiz-adv-x="1208" 
d="M1198 1274q0 -8 -6 -8h-70q-26 0 -55 -47l-172 -285q-7 -10 -27 -41h236q10 0 10 -12v-43q0 -9 -8 -9h-277q-129 -203 -135 -217q-10 -24 -10 -32v-64h420q5 0 7.5 -2t2.5 -10v-43q0 -8 -8 -8h-424v-213q0 -187 39 -187h172q5 0 7.5 -2t2.5 -10v-33q0 -8 -8 -8h-539
q-14 0 -14 12v27q0 14 12 14h164q17 0 17 25v375h-404q-14 0 -14 12v37q0 14 12 14h403v55q0 31 -10 43q-16 21 -133 215h-258q-14 0 -14 13v37q0 14 12 14h221q-26 43 -80.5 132t-109 165t-101.5 76h-36q-9 0 -13 10v29q0 14 13 14h448q14 0 14 -12v-31q0 -10 -8 -10h-115
q-26 0 -26 -21q0 -15 12 -41q62 -104 182 -311h275q79 136 100 180q45 95 45 168q0 25 -26 25h-88q-9 0 -9 8v35q0 10 9 10h354q8 0 8 -8v-37zM768 829h-201l86 -141q13 -16 21 -6z" />
    <glyph glyph-name="brokenbar" unicode="&#xa6;" horiz-adv-x="590" 
d="M342 711q0 -20 -25 -35q-18 -12 -41 0q-20 11 -20 28v776q0 18 20 29q23 12 41 0q17 -11 17 -29zM334 -363q0 -18 -17 -29q-20 -13 -44 0q-20 11 -20 29l-3 855q0 14 26 29q23 12 41 0q17 -11 17 -29v-855z" />
    <glyph glyph-name="section" unicode="&#xa7;" horiz-adv-x="860" 
d="M793 524q0 -184 -107 -314q-121 -149 -332 -149q-92 0 -166 27q-77 28 -77 92q0 44 65 44q25 0 48 -6.5t83 -47.5q52 -35 80 -35q88 0 88 62q0 17 -61 73q-122 114 -129 121q-232 232 -232 434q0 185 106 317q121 150 328 150q98 0 173 -31.5t75 -89.5q0 -46 -66 -46
q-25 0 -48 7.5t-82 53.5q-52 41 -80 41q-64 0 -86 -6q0 -75 188 -263q232 -230 232 -434zM713 479q0 119 -146 254q-67 60 -196 180q-75 73 -75 170q0 30 7 62q6 28 23 67q-176 -107 -176 -321q0 -121 143 -254q68 -59 199 -180q65 -64 81 -162q-41 -82 -53 -148
q193 95 193 332z" />
    <glyph glyph-name="dieresis" unicode="&#xa8;" horiz-adv-x="545" 
d="M510 1159q0 -47 -43 -83q-36 -32 -70 -32q-59 0 -59 60q0 33 30 69q36 44 89 44t53 -58zM205 1159q0 -47 -43 -83q-37 -32 -70 -32q-59 0 -59 60q0 33 30 69q36 44 89 44t53 -58z" />
    <glyph glyph-name="copyright" unicode="&#xa9;" horiz-adv-x="1106" 
d="M1047 838q0 -205 -145 -349.5t-349 -144.5t-349 144.5t-145 349.5q0 204 145 348.5t349 144.5t349 -144.5t145 -348.5zM995 838q0 190 -127 323t-315 133t-316 -133t-128 -323q0 -191 128 -324t316 -133t315 133t127 324zM778 596q-38 -47 -98 -72q-64 -26 -150 -26
q-127 0 -204 86q-70 77 -70 235q0 89 41 180q33 73 96 119q88 64 221 64q58 0 91 -4q43 -6 61 -15q4 -2 4 -4q0 -4 -6 -53q0 -29 -4 -47q-2 -8 -4 -8t-2 4q-4 8 -6 16q-11 18 -35 33q-44 26 -133 26q-93 0 -172 -79q-72 -72 -72 -217q0 -148 70 -222q73 -77 178 -77
q34 0 88 26q32 22 57 64q12 27 14 43q0 8 2 8q2 -1 3 -4q9 -18 20 -41q6 -19 10 -27q2 -3 2 -4t-2 -4z" />
    <glyph glyph-name="ordfeminine" unicode="&#xaa;" horiz-adv-x="588" 
d="M578 815q-1 -4 -9 -12q-27 -34 -53 -47q-5 -8 -16 -8q-42 0 -82 38.5t-49 81.5q-35 -49 -80 -73q-71 -39 -119 -39q-51 0 -78 20q-39 30 -39 86q0 71 39 125q29 40 94 69.5t174 51.5q5 0 5 8v133q-9 34 -29 45q-25 15 -70 15q-69 0 -90 -13q-10 -8 -10 -14l2 -20
q0 -31 -16 -56q-21 -41 -62 -41q-29 0 -29 39q0 26 30 65.5t67 61.5q65 39 176 39q80 0 108 -31q29 -24 29 -98q0 -51 -6 -154.5t-6 -117.5q0 -62 33 -101q25 -30 69 -39q17 -12 17 -14zM360 1059q0 4 -4 4q-53 0 -110 -27q-99 -45 -99 -121q0 -48 18.5 -62.5t59.5 -14.5
q51 0 113 49q6 6 14 28q8 70 8 144zM578 643q0 -16 -7 -19t-39 -3h-434q-32 0 -38.5 2.5t-6.5 17.5v21q0 19 24 21q-5 0 40 -1q200 -3 397 0q64 1 64 -20v-19z" />
    <glyph glyph-name="guillemotleft" unicode="&#xab;" horiz-adv-x="829" 
d="M759 231q-3 -8 -12 -24q-8 -12 -17 -11q-9 0 -36 19q-56 43 -269 223q-25 22 -26 33l-4 49q-2 16 18 33q34 43 128 131q101 93 138 137q18 27 31 27q8 -3 24 -13q9 -12 11 -20q0 -1 -19 -33q-100 -129 -205 -268l-12 -17l19 -24q56 -67 204 -211q27 -18 27 -31zM473 223
q-3 -8 -12 -24q-11 -13 -17 -13q-4 2 -36 21q-56 43 -269 223q-25 22 -26 33l-4 49q-2 16 18 33q34 43 128 131q101 93 138 137q18 27 31 27q8 -3 25 -13q8 -12 10 -20q0 -1 -19 -33q-100 -129 -204 -268l-13 -17l19 -24q56 -67 204 -211q27 -18 27 -31z" />
    <glyph glyph-name="logicalnot" unicode="&#xac;" horiz-adv-x="987" 
d="M799 604q-1 -16 -13 -37l-2 -248q0 -20 -62 -20q-57 0 -57 14q0 16 2 254l-501 2q-21 1 -21 25t27 51l606 -4q22 -21 21 -37z" />
    <glyph glyph-name="minus" unicode="&#xad;" horiz-adv-x="987" 
d="M799 627q0 -62 -15 -62q-53 0 -313.5 3t-304.5 3q-21 0 -21 39q0 29 10 56q9 24 17 24q57 0 314.5 -3t291.5 -3q21 0 21 -57z" />
    <glyph glyph-name="minus" unicode="&#x2212;" horiz-adv-x="987" 
d="M799 627q0 -62 -15 -62q-53 0 -313.5 3t-304.5 3q-21 0 -21 39q0 29 10 56q9 24 17 24q57 0 314.5 -3t291.5 -3q21 0 21 -57z" />
    <glyph glyph-name="registered" unicode="&#xae;" horiz-adv-x="1106" 
d="M1047 838q0 -205 -145 -349.5t-349 -144.5t-349 144.5t-145 349.5q0 204 145 348.5t349 144.5t349 -144.5t145 -348.5zM995 838q0 190 -127 323t-315 133t-316 -133t-128 -323q0 -191 128 -324t316 -133t315 133t127 324zM893 573q0 -4 -4 -4h-137q-11 0 -13 4
q-26 21 -116 132q-53 64 -78 114q-3 8 -8 8l-26 2t-38 2q-6 3 -6 -4v-147q0 -90 22 -90h66q8 0 8 -4v-13q0 -4 -6 -4h-248q-6 0 -6 4v13q0 4 4 4h64q6 0 6 12v395q0 115 -17 115h-59q-4 0 -4 2v16q0 3 4 3h139h166q65 -10 105 -43q47 -40 47 -99q0 -50 -47 -108
q-23 -28 -78 -45q-6 0 -4 -4q10 -25 94 -123q33 -41 100 -103q30 -18 62 -18q8 0 8 -4v-13zM664 969q0 57 -43 92q-37 29 -37 30q-33 17 -99 17q-14 0 -18 -4v-150v-94q0 -6 4 -8h47q20 0 44.5 3t23.5 3q78 19 78 111z" />
    <glyph glyph-name="macron" unicode="&#xaf;" horiz-adv-x="545" 
d="M481 1110q-10 -16 -28 -16h-361q-18 0 -29 16q-11 19 0 41q12 20 29 20h361q17 1 28 -20q12 -22 0 -41z" />
    <glyph glyph-name="macron" unicode="&#x2c9;" horiz-adv-x="545" 
d="M481 1110q-10 -16 -28 -16h-361q-18 0 -29 16q-11 19 0 41q12 20 29 20h361q17 1 28 -20q12 -22 0 -41z" />
    <glyph glyph-name="degree" unicode="&#xb0;" horiz-adv-x="578" 
d="M471 1182q0 -75 -53.5 -128t-128.5 -53q-76 0 -129.5 53t-53.5 128t54 128.5t129 53.5t128.5 -53.5t53.5 -128.5zM420 1182q0 55 -39 95t-92 40q-54 0 -92.5 -40t-38.5 -95t38.5 -94t92.5 -39t92.5 39t38.5 94z" />
    <glyph glyph-name="plusminus" unicode="&#xb1;" horiz-adv-x="987" 
d="M799 627q0 -62 -15 -62q12 0 -73 1t-168 1q0 -79 -1 -162t-1 -76q0 -20 -62 -20q-57 0 -57 14q0 -6 1 79t1 165q-77 0 -171.5 2t-86.5 2q-21 0 -21 39q0 29 10 56q9 24 17 24q-3 0 86.5 -1t165.5 -1q0 79 2 171t2 83q0 21 39 21q25 0 52.5 -9.5t27.5 -17.5q0 -6 -2 -89
t-2 -159q81 0 160.5 -2t74.5 -2q21 0 21 -57zM788 168q0 -36 -15 -36q-53 0 -302.5 1.5t-293.5 1.5q-21 0 -21 23q0 47 27 47q57 0 303.5 -2t280.5 -2q21 0 21 -33z" />
    <glyph glyph-name="twosuperior" unicode="&#xb2;" horiz-adv-x="734" 
d="M677 563q0 -3 -9 -22q-14 -32 -32 -72q-6 -8 -12 -8h-544q-12 0 -12 20q0 26 37 50q173 108 274 233q123 151 123 297q0 86 -45 134q-52 55 -164 55q-129 0 -195 -81q-5 -6 -13 -4q-18 8 -25 21q0 21 42 62q39 38 72 55q85 45 195 45q113 0 181 -62.5t68 -170.5
q0 -72 -31 -143q-60 -138 -152 -232q-102 -104 -206 -178q-9 -6 -6 -11t16 -4l165 4q182 5 239 16q20 4 23 4q9 0 11 -8z" />
    <glyph glyph-name="threesuperior" unicode="&#xb3;" horiz-adv-x="675" 
d="M602 721q0 -115 -132 -210q-83 -61 -247 -61q-104 0 -155 38q-10 8 -10 14q4 13 10 24q9 4 25 -7q19 -18 119 -18q43 0 88 14q39 12 92 53q45 35 60 58q24 37 24 97q0 69 -81 127q-37 27 -161 51q-20 4 -20 18q0 20 19 26q142 43 167 130q9 28 9 61q0 52 -36 89
q-32 34 -106 34q-86 0 -146 -39q-12 -11 -22 -11q-9 0 -9 27q1 6 7 13q41 44 105 74q58 27 161 27q61 0 113 -43q59 -48 59 -123q0 -79 -75 -152q-55 -53 -82 -70q-19 -12 4 -16q93 -14 150 -62q70 -57 70 -163z" />
    <glyph glyph-name="acute" unicode="&#xb4;" horiz-adv-x="545" 
d="M463 1198q-10 -10 -39 -27q-139 -79 -318 -167q-43 -26 -51 -7q-10 23 15 39l221 172q15 13 31 11q49 -7 137 -7q18 0 4 -14z" />
    <glyph glyph-name="mu" unicode="&#xb5;" horiz-adv-x="1083" 
d="M1016 41q0 -9 -9 -14q-25 -10 -63 -27q-10 -6 -31 -20q-6 -7 -18 -7q2 0 -27 15q-53 33 -86 149q-5 17 -20 4q-10 -8 -195 -116q-62 -37 -207 -37q-37 0 -65 24q15 -254 6 -351q-1 -13 -14 -30q-44 -58 -93 -88q-22 -15 -84 -44q-22 -10 -26 7q-3 11 6 28q45 93 67 280
q23 198 23 346v55v395q0 252 -41 252h-119q-14 0 -14 10v33q0 10 8 10h123q5 0 49.5 3.5t53.5 3.5q73 8 65 8q17 0 17 -27q0 -2 -2.5 -305.5t-2.5 -329.5q0 -94 42 -130q36 -32 122 -32q96 0 281 82q10 0 10 17v514q0 139 -41 139h-129q-12 0 -12 10v33q0 10 8 10h139
q61 0 104 7q58 8 60 8q14 0 14 -29q0 -4 -2 -314.5t-2 -326.5q0 -141 92 -199q13 -7 13 -16z" />
    <glyph glyph-name="mu" unicode="&#x3bc;" horiz-adv-x="1083" 
d="M1016 41q0 -9 -9 -14q-25 -10 -63 -27q-10 -6 -31 -20q-6 -7 -18 -7q2 0 -27 15q-53 33 -86 149q-5 17 -20 4q-10 -8 -195 -116q-62 -37 -207 -37q-37 0 -65 24q15 -254 6 -351q-1 -13 -14 -30q-44 -58 -93 -88q-22 -15 -84 -44q-22 -10 -26 7q-3 11 6 28q45 93 67 280
q23 198 23 346v55v395q0 252 -41 252h-119q-14 0 -14 10v33q0 10 8 10h123q5 0 49.5 3.5t53.5 3.5q73 8 65 8q17 0 17 -27q0 -2 -2.5 -305.5t-2.5 -329.5q0 -94 42 -130q36 -32 122 -32q96 0 281 82q10 0 10 17v514q0 139 -41 139h-129q-12 0 -12 10v33q0 10 8 10h139
q61 0 104 7q58 8 60 8q14 0 14 -29q0 -4 -2 -314.5t-2 -326.5q0 -141 92 -199q13 -7 13 -16z" />
    <glyph glyph-name="paragraph" unicode="&#xb6;" horiz-adv-x="1028" 
d="M950 1305q0 -9 -14 -9h-55q-20 0 -21 -23v-50q-4 -66 -4 -506q0 -374 -50 -512q-74 -203 -304 -203q-90 0 -158 24.5t-68 75.5q0 46 67 46q19 0 37.5 -5.5t75.5 -44.5q49 -35 76 -35q86 0 86 176v369q0 8 -8 6q-87 -34 -186 -34q-171 0 -260 114q-92 119 -92 262
q0 135 102 267q35 44 117 83q103 48 217 48q21 0 100 -2t127 -2h203q12 0 12 -11v-34zM618 680q0 7 -1 139t-1 142q0 254 -6 307q-1 9 -4 20q-7 2 -49 2q-129 0 -209 -112q-72 -101 -72 -236q0 -163 54 -235q51 -70 151 -70q80 0 127 25q10 5 10 18zM797 1290q-30 4 -111 -2
q2 -164 2 -432q0 -46 2.5 -173.5t2.5 -199.5q0 -375 -60 -420q116 27 148 299q12 97 12 355q0 501 4 573z" />
    <glyph glyph-name="periodcentered" unicode="&#xb7;" horiz-adv-x="389" 
d="M283 834q0 -36 -28 -61t-65 -25q-92 0 -92 86q0 96 111 96q74 0 74 -96z" />
    <glyph glyph-name="periodcentered" unicode="&#x2219;" horiz-adv-x="389" 
d="M283 834q0 -36 -28 -61t-65 -25q-92 0 -92 86q0 96 111 96q74 0 74 -96z" />
    <glyph glyph-name="cedilla" unicode="&#xb8;" horiz-adv-x="545" 
d="M449 -219q0 -60 -43 -101.5t-111 -41.5q-76 0 -125 49q-8 6 -8 16q0 4 2 8q11 15 22 8q57 -30 82 -30q99 0 99 108q0 82 -80 82q-24 0 -47 -14q-12 -7 -31 12q-12 10 0 31q28 38 63 92h37l-45 -76q17 4 31 4q154 0 154 -147z" />
    <glyph glyph-name="onesuperior" unicode="&#xb9;" horiz-adv-x="501" 
d="M462 468q0 -7 -6 -7h-394q-7 0 -7 8v34q0 8 7 8h112q18 0 18 34q0 7 2 290.5t2 291.5q0 92 -6 118q-9 43 -62 43h-54q-9 0 -9 8v33q0 8 9 8h76q83 0 129 6.5t44 6.5q13 0 13 -13q0 1 -7.5 -317t-7.5 -342q0 -167 39 -167h94q8 0 8 -6v-37z" />
    <glyph glyph-name="ordmasculine" unicode="&#xba;" horiz-adv-x="653" 
d="M618 1059q0 -84 -28 -154q-34 -82 -121 -129q-65 -35 -141 -35q-84 0 -129 19q-84 34 -123 116.5t-39 176.5q0 108 43 182q40 70 115 106q58 29 161 29q88 0 138 -31q63 -39 96 -118q28 -70 28 -162zM512 1026q0 134 -63 208.5t-166 74.5q-46 0 -58 -3q-24 -7 -43 -34
q-35 -52 -35 -162q0 -119 39 -205q31 -68 82 -99q34 -20 80 -20q55 0 86 19q39 29 60 82q18 47 18 139zM618 643q0 -16 -6.5 -19t-38.5 -3h-491q-33 0 -39 2.5t-6 17.5v21q0 15 8.5 17.5t54.5 2.5h455q45 0 54 -2.5t9 -17.5v-19z" />
    <glyph glyph-name="guillemotright" unicode="&#xbb;" horiz-adv-x="829" 
d="M721 512l-4 -49q-1 -11 -27 -33q-88 -76 -268 -223q-27 -19 -33 -19q-8 0 -20 11q-11 12 -13 24q0 13 27 31q53 44 109 108q71 79 96 103l18 24l-12 17q-105 139 -205 268q-21 25 -18 33q3 7 10 20q12 11 25 13q12 0 30 -27q38 -44 138 -137q95 -88 128 -131
q20 -17 19 -33zM424 512l-4 -49q-1 -11 -27 -33q-88 -76 -268 -223q-27 -19 -33 -19q-8 0 -20 11q-11 12 -13 24q0 13 27 31q53 44 109 108q71 79 96 103l18 24l-12 17q-104 139 -205 268q-20 23 -18 33q3 7 10 20q12 11 25 13q13 0 30 -27q38 -44 138 -137q95 -88 129 -131
q19 -17 18 -33z" />
    <glyph glyph-name="onequarter" unicode="&#xbc;" horiz-adv-x="1580" 
d="M462 468q0 -7 -6 -7h-394q-7 0 -7 8v34q0 8 7 8h112q18 0 18 34q0 7 2 290.5t2 291.5q0 92 -6 118q-9 43 -62 43h-54q-9 0 -9 8v33q0 8 9 8h76q83 0 129 6.5t44 6.5q13 0 13 -13q0 1 -7.5 -317t-7.5 -342q0 -167 39 -167h94q8 0 8 -6v-37zM1215 1331q3 -5 -16 -33
q-55 -79 -454 -639q-408 -573 -461 -643q-14 -19 -29 -27q-31 6 -36 30q-6 12 16 34q444 639 915 1281q14 19 30 28q26 -8 35 -31zM1465 392q0 -3 -7 -20q-14 -31 -33 -69q-4 -8 -13 -8q-44 4 -86 4q-14 0 -14 -11q0 -4 3.5 -121t3.5 -128q0 -21 -13 -25q-4 -3 -52 -19
q-52 -18 -58 -18q-19 0 -19 18q0 5 8 144t8 145q0 13 -16 13h-367q-25 0 -25 18q0 11 8 20q30 28 236 269q116 138 267 304q18 12 33 12q14 0 14 -16q0 -4 -14 -251t-14 -254q0 -13 12 -11q9 0 66.5 5t61.5 5q10 0 10 -6zM1216 725q0 18 -23 -1t-101 -114l-98 -113
q-89 -101 -88 -104t9 -3h271q13 0 16 3t3 10.5t5.5 163.5t5.5 158z" />
    <glyph glyph-name="onehalf" unicode="&#xbd;" horiz-adv-x="1580" 
d="M462 468q0 -7 -6 -7h-394q-7 0 -7 8v34q0 8 7 8h112q18 0 18 34q0 7 2 290.5t2 291.5q0 92 -6 118q-9 43 -62 43h-54q-9 0 -9 8v33q0 8 9 8h76q83 0 129 6.5t44 6.5q13 0 13 -13q0 1 -7.5 -317t-7.5 -342q0 -167 39 -167h94q8 0 8 -6v-37zM1530 102q0 -3 -9 -22
q-14 -32 -32 -72q-6 -8 -12 -8h-544q-12 0 -12 20q0 26 37 50q173 108 274 233q123 151 123 297q0 86 -45 134q-52 55 -164 55q-129 0 -195 -81q-5 -6 -13 -4q-18 8 -25 21q0 21 42 62q39 38 72 55q85 45 195 45q113 0 181 -62.5t68 -170.5q0 -72 -31 -143
q-60 -138 -152 -232q-102 -104 -206 -178q-9 -6 -6 -11t16 -4l165 4q182 5 239 16q20 4 23 4q9 0 11 -8zM1215 1331q3 -5 -16 -33q-55 -79 -454 -639q-408 -573 -461 -643q-14 -19 -29 -27q-31 6 -36 30q-6 12 16 34q444 639 915 1281q14 19 30 28q26 -8 35 -31z" />
    <glyph glyph-name="threequarters" unicode="&#xbe;" horiz-adv-x="1580" 
d="M1319 1331q3 -5 -16 -33q-55 -79 -454 -639q-408 -573 -461 -643q-14 -19 -29 -27q-31 6 -36 30q-6 12 16 34q444 639 915 1281q14 19 30 28q26 -8 35 -31zM1496 392q0 -3 -7 -20q-14 -31 -33 -69q-4 -8 -13 -8q-44 4 -86 4q-14 0 -14 -11q0 -4 3.5 -121t3.5 -128
q0 -21 -13 -25q-4 -3 -52 -19q-52 -18 -58 -18q-19 0 -19 18q0 5 8 144t8 145q0 13 -16 13h-367q-25 0 -25 18q0 11 8 20q30 28 236 269q116 138 267 304q18 12 33 12q14 0 14 -16q0 -4 -14 -251t-14 -254q0 -13 12 -11q9 0 66.5 5t61.5 5q10 0 10 -6zM1247 725q0 18 -23 -1
t-101 -114l-98 -113q-89 -101 -88 -104t9 -3h271q13 0 16 3t3 10.5t5.5 163.5t5.5 158zM602 721q0 -115 -132 -210q-83 -61 -247 -61q-104 0 -155 38q-10 8 -10 14q4 13 10 24q9 4 25 -7q19 -18 119 -18q43 0 88 14q39 12 92 53q45 35 60 58q24 37 24 97q0 69 -81 127
q-37 27 -161 51q-20 4 -20 18q0 20 19 26q142 43 167 130q9 28 9 61q0 52 -36 89q-32 34 -106 34q-86 0 -146 -39q-12 -11 -22 -11q-9 0 -9 27q1 6 7 13q41 44 105 74q58 27 161 27q61 0 113 -43q59 -48 59 -123q0 -79 -75 -152q-55 -53 -82 -70q-19 -12 4 -16
q93 -14 150 -62q70 -57 70 -163z" />
    <glyph glyph-name="questiondown" unicode="&#xbf;" horiz-adv-x="696" 
d="M96 246q0 144 123 297q37 46 156 135q14 11 14 29q0 15 -8 30q-20 37 -41.5 60.5t-67.5 25.5q-14 5 -14 17q0 6 6 18q3 5 29 27l51 30q23 15 33 15q12 0 35 -23q49 -49 73 -116q11 -29 11 -43q0 -24 -15 -37q-82 -75 -90 -83q-41 -41 -78 -98q-77 -120 -77 -270
q0 -43 25 -96q30 -62 79 -94q90 -60 184 -60q7 0 26.5 1t22.5 1q19 0 19 -14q0 -7 -12 -25q-27 -38 -43 -49q-8 -11 -25 -14q-34 -6 -82 -6q-158 0 -256 116q-78 94 -78 226zM276 1120q0 92 99 92q67 0 67 -73q0 -86 -116 -86q-50 0 -50 67z" />
    <glyph glyph-name="Agrave" unicode="&#xc0;" horiz-adv-x="1341" 
d="M1331 10q0 -10 -6 -10h-461q-10 0 -10 12v27q0 14 10 14h137q16 0 13 18q-9 32 -69 208.5t-66 189.5q-8 20 -21 20h-483q-9 -2 -15 -12q-14 -27 -48 -126.5t-42 -135.5q-16 -80 -16 -96q0 -66 16 -66h152q12 0 12 -14v-29q0 -10 -10 -10h-404q-10 0 -10 10v33q0 10 8 10
h86q22 0 59.5 94t223.5 543q119 283 289 686q11 31 22 35q28 8 72 25q7 3 16 -10.5t-8 -30.5q-30 -31 -30 -60q-1 -30 14 -75q54 -150 195 -561.5t196 -532.5q53 -113 76 -113h94q8 0 8 -14v-29zM836 580q-41 119 -88 261t-97 296q-3 13 -8 16q-4 -4 -10 -16
q-125 -306 -179.5 -434t-54.5 -132q0 -6 9 -6h423q10 0 5 15zM868 1478q-17 -10 -52 7q-134 63 -317 167q-29 17 -43 31q-10 10 10 10q89 0 135 7q16 2 31 -11q83 -64 221 -172q32 -25 15 -39z" />
    <glyph glyph-name="Aacute" unicode="&#xc1;" horiz-adv-x="1341" 
d="M1331 10q0 -10 -6 -10h-461q-10 0 -10 12v27q0 14 10 14h137q16 0 13 18q-9 32 -69 208.5t-66 189.5q-8 20 -21 20h-483q-9 -2 -15 -12q-14 -27 -48 -126.5t-42 -135.5q-16 -80 -16 -96q0 -66 16 -66h152q12 0 12 -14v-29q0 -10 -10 -10h-404q-10 0 -10 10v33q0 10 8 10
h86q22 0 59.5 94t223.5 543q119 283 289 686q11 31 22 35q28 8 72 25q7 3 16 -10.5t-8 -30.5q-30 -31 -30 -60q-1 -30 14 -75q54 -150 195 -561.5t196 -532.5q53 -113 76 -113h94q8 0 8 -14v-29zM836 580q-41 119 -88 261t-97 296q-3 13 -8 16q-4 -4 -10 -16
q-125 -306 -179.5 -434t-54.5 -132q0 -6 9 -6h423q10 0 5 15zM957 1679q-10 -10 -39 -27q-139 -79 -318 -167q-43 -26 -51 -7q-10 23 15 39l221 172q15 13 31 11q49 -7 137 -7q18 0 4 -14z" />
    <glyph glyph-name="Acircumflex" unicode="&#xc2;" horiz-adv-x="1341" 
d="M1331 10q0 -10 -6 -10h-461q-10 0 -10 12v27q0 14 10 14h137q16 0 13 18q-9 32 -69 208.5t-66 189.5q-8 20 -21 20h-483q-9 -2 -15 -12q-14 -27 -48 -126.5t-42 -135.5q-16 -80 -16 -96q0 -66 16 -66h152q12 0 12 -14v-29q0 -10 -10 -10h-404q-10 0 -10 10v33q0 10 8 10
h86q22 0 59.5 94t223.5 543q119 283 289 686q11 31 22 35q28 8 72 25q7 3 16 -10.5t-8 -30.5q-30 -31 -30 -60q-1 -30 14 -75q54 -150 195 -561.5t196 -532.5q53 -113 76 -113h94q8 0 8 -14v-29zM836 580q-41 119 -88 261t-97 296q-3 13 -8 16q-4 -4 -10 -16
q-125 -306 -179.5 -434t-54.5 -132q0 -6 9 -6h423q10 0 5 15zM977 1504q-19 -11 -47 7q-61 39 -201 132q-72 -52 -194 -132q-28 -16 -48 -7q-6 6 17 33q55 72 139 174q10 13 17 13q20 2 61 2q61 0 71.5 -2t19.5 -9q66 -66 149 -178q21 -28 16 -33z" />
    <glyph glyph-name="Atilde" unicode="&#xc3;" horiz-adv-x="1341" 
d="M1331 10q0 -10 -6 -10h-461q-10 0 -10 12v27q0 14 10 14h137q16 0 13 18q-9 32 -69 208.5t-66 189.5q-8 20 -21 20h-483q-9 -2 -15 -12q-14 -27 -48 -126.5t-42 -135.5q-16 -80 -16 -96q0 -66 16 -66h152q12 0 12 -14v-29q0 -10 -10 -10h-404q-10 0 -10 10v33q0 10 8 10
h86q22 0 59.5 94t223.5 543q119 283 289 686q11 31 22 35q28 8 72 25q7 3 16 -10.5t-8 -30.5q-30 -31 -30 -60q-1 -30 14 -75q54 -150 195 -561.5t196 -532.5q53 -113 76 -113h94q8 0 8 -14v-29zM836 580q-41 119 -88 261t-97 296q-3 13 -8 16q-4 -4 -10 -16
q-125 -306 -179.5 -434t-54.5 -132q0 -6 9 -6h423q10 0 5 15zM983 1641q10 -23 -6 -45q-49 -69 -157 -69q-57 0 -113 28q-96 49 -137 49q-34 0 -64 -32q-20 -23 -35 16q-5 14 11 37q49 69 157 69q48 0 111 -28q108 -49 139 -49q29 0 62 32q20 21 32 -8z" />
    <glyph glyph-name="Adieresis" unicode="&#xc4;" horiz-adv-x="1341" 
d="M1331 10q0 -10 -6 -10h-461q-10 0 -10 12v27q0 14 10 14h137q16 0 13 18q-9 32 -69 208.5t-66 189.5q-8 20 -21 20h-483q-9 -2 -15 -12q-14 -27 -48 -126.5t-42 -135.5q-16 -80 -16 -96q0 -66 16 -66h152q12 0 12 -14v-29q0 -10 -10 -10h-404q-10 0 -10 10v33q0 10 8 10
h86q22 0 59.5 94t223.5 543q119 283 289 686q11 31 22 35q28 8 72 25q7 3 16 -10.5t-8 -30.5q-30 -31 -30 -60q-1 -30 14 -75q54 -150 195 -561.5t196 -532.5q53 -113 76 -113h94q8 0 8 -14v-29zM836 580q-41 119 -88 261t-97 296q-3 13 -8 16q-4 -4 -10 -16
q-125 -306 -179.5 -434t-54.5 -132q0 -6 9 -6h423q10 0 5 15zM994 1599q0 -47 -43 -83q-36 -32 -70 -32q-59 0 -59 60q0 33 30 69q36 44 89 44t53 -58zM689 1599q0 -47 -43 -83q-37 -32 -70 -32q-59 0 -59 60q0 33 30 69q36 44 89 44t53 -58z" />
    <glyph glyph-name="Aring" unicode="&#xc5;" horiz-adv-x="1341" 
d="M1331 10q0 -10 -6 -10h-461q-10 0 -10 12v27q0 14 10 14h137q16 0 13 18q-9 32 -69 208.5t-66 189.5q-8 20 -21 20h-483q-9 -2 -15 -12q-14 -27 -48 -126.5t-42 -135.5q-16 -80 -16 -96q0 -66 16 -66h152q12 0 12 -14v-29q0 -10 -10 -10h-404q-10 0 -10 10v33q0 10 8 10
h86q22 0 59.5 94t223.5 543q119 283 289 686q11 31 22 35q28 8 72 25q7 3 16 -10.5t-8 -30.5q-30 -31 -30 -60q-1 -30 14 -75q54 -150 195 -561.5t196 -532.5q53 -113 76 -113h94q8 0 8 -14v-29zM836 580q-41 119 -88 261t-97 296q-3 13 -8 16q-4 -4 -10 -16
q-125 -306 -179.5 -434t-54.5 -132q0 -6 9 -6h423q10 0 5 15zM873 1620q0 -75 -53.5 -127.5t-129.5 -52.5q-75 0 -128.5 52.5t-53.5 127.5q0 76 53.5 129.5t128.5 53.5q76 0 129.5 -53.5t53.5 -129.5zM815 1620q0 51 -37 88t-88 37q-50 0 -87.5 -37t-37.5 -88
q0 -50 37.5 -86t87.5 -36q51 0 88 36t37 86z" />
    <glyph glyph-name="AE" unicode="&#xc6;" horiz-adv-x="1720" 
d="M1700 143q-29 -57 -68 -131q-8 -12 -20 -12h-885q-10 0 -10 12v31q0 10 8 10h147q19 0 19 21v458q0 21 -17 21h-370q-27 -7 -43 -35q-132 -225 -162 -303q-30 -57 -37 -96q-11 -66 6 -66h152q12 0 6 -14q0 -23 -8 -29q2 -10 -8 -10h-404q-10 0 -12 10q8 8 8 33
q8 10 14 10h93q14 0 25 20t22 42q7 13 177 291t173 284q6 13 128 218t134 222q25 37 57 99q15 27 15 45q0 33 -37 33h-76q-10 0 -10 10v33q0 10 12 10h834q17 0 47.5 2t29.5 2q13 0 11 -10q-14 -55 -35 -127q-7 -23 -13 -24q-5 0 -18 16q-36 36 -117 51q-116 21 -413 24
q-13 0 -17 -12t-4 -496q0 -20 17 -20h428q13 0 15.5 15t8.5 64t6 54q0 19 13 19h14q12 0 12 -17q0 -4 -4 -83.5t-4 -94.5t2 -105t2 -96q0 -22 -10 -22h-16q-10 0 -13 14q-3 64 -10 152q-2 20 -18 20q-9 0 -216 4t-212 4q-13 0 -13 -18v-377q0 -240 51 -240q219 0 311 9
q147 15 251 63q40 25 45 25q10 0 6 -13zM889 668q0 146 -2 172q-9 109 -2 297q1 26 -17 26q-10 0 -30 -28q-17 -23 -85.5 -133.5t-76.5 -127.5q-129 -192 -139 -225q-6 -11 -6 -15q-1 -5 8 -5h331q19 0 19 39z" />
    <glyph glyph-name="Ccedilla" unicode="&#xc7;" horiz-adv-x="1407" 
d="M1313 197q5 -9 -2 -17q-75 -81 -248 -143q-136 -49 -342 -49q-175 0 -277 35q-105 36 -204 133q-164 159 -164 485q0 181 94 363q76 146 231 247q202 131 519 131q119 0 217 -10q115 -12 145 -29q6 -2 6 -10q-1 -16 -10 -84q-6 -55 -10 -96q-2 -12 -8 -12q-9 0 -10.5 9
t-11 28t-83.5 69q-106 53 -313 53q-266 0 -424 -163q-178 -185 -178 -463q0 -305 188 -477q95 -87 192 -118q87 -28 234 -28q109 0 211 47.5t152 124.5q28 45 34 84q0 17 6 17q4 0 7 -9q7 -33 22 -63q10 -23 27 -55zM891 -233q0 -60 -43 -101.5t-111 -41.5q-76 0 -125 49
q-8 6 -8 16q0 4 2 8q11 15 22 8q57 -30 82 -30q99 0 99 108q0 82 -80 82q-24 0 -47 -14q-12 -7 -31 12q-12 10 0 31q28 38 63 92h37l-45 -76q17 4 31 4q154 0 154 -147z" />
    <glyph glyph-name="Egrave" unicode="&#xc8;" horiz-adv-x="1174" 
d="M1124 143q-28 -57 -67 -131q-8 -12 -21 -12h-946q-10 0 -10 12v31q0 10 8 10h148q20 0 20 21q0 9 -2 307.5t-2 308t-1 206t-1 208.5q0 203 -39 203h-121q-10 0 -10 10v33q0 10 12 10h895q18 0 48.5 2t29.5 2q13 0 10 -10q-14 -55 -35 -127q-8 -23 -16 -23l-14 15
q-37 36 -117 51q-112 20 -475 24q-12 0 -16.5 -12t-4.5 -496q0 -20 17 -20h489q14 0 16.5 15t8 64t6.5 54q0 19 12 19h15q12 0 12 -17q0 -4 -4 -83.5t-4 -94.5t2 -105t2 -96q0 -22 -11 -22h-16q-10 0 -12 14q-4 64 -10 152q-3 20 -19 20q-9 0 -246.5 4t-242.5 4
q-13 0 -13 -18v-377q0 -240 52 -240q468 0 622 72q37 21 45 25q10 0 6 -13zM818 1480q-17 -10 -52 7q-134 63 -317 167q-29 17 -43 31q-10 10 10 10q89 0 135 7q16 2 31 -11q83 -64 221 -172q32 -25 15 -39z" />
    <glyph glyph-name="Eacute" unicode="&#xc9;" horiz-adv-x="1174" 
d="M1124 143q-28 -57 -67 -131q-8 -12 -21 -12h-946q-10 0 -10 12v31q0 10 8 10h148q20 0 20 21q0 9 -2 307.5t-2 308t-1 206t-1 208.5q0 203 -39 203h-121q-10 0 -10 10v33q0 10 12 10h895q18 0 48.5 2t29.5 2q13 0 10 -10q-14 -55 -35 -127q-8 -23 -16 -23l-14 15
q-37 36 -117 51q-112 20 -475 24q-12 0 -16.5 -12t-4.5 -496q0 -20 17 -20h489q14 0 16.5 15t8 64t6.5 54q0 19 12 19h15q12 0 12 -17q0 -4 -4 -83.5t-4 -94.5t2 -105t2 -96q0 -22 -11 -22h-16q-10 0 -12 14q-4 64 -10 152q-3 20 -19 20q-9 0 -246.5 4t-242.5 4
q-13 0 -13 -18v-377q0 -240 52 -240q468 0 622 72q37 21 45 25q10 0 6 -13zM879 1679q-10 -10 -39 -27q-139 -79 -318 -167q-43 -26 -51 -7q-10 23 15 39l221 172q15 13 31 11q49 -7 137 -7q18 0 4 -14z" />
    <glyph glyph-name="Ecircumflex" unicode="&#xca;" horiz-adv-x="1174" 
d="M1124 143q-28 -57 -67 -131q-8 -12 -21 -12h-946q-10 0 -10 12v31q0 10 8 10h148q20 0 20 21q0 9 -2 307.5t-2 308t-1 206t-1 208.5q0 203 -39 203h-121q-10 0 -10 10v33q0 10 12 10h895q18 0 48.5 2t29.5 2q13 0 10 -10q-14 -55 -35 -127q-8 -23 -16 -23l-14 15
q-37 36 -117 51q-112 20 -475 24q-12 0 -16.5 -12t-4.5 -496q0 -20 17 -20h489q14 0 16.5 15t8 64t6.5 54q0 19 12 19h15q12 0 12 -17q0 -4 -4 -83.5t-4 -94.5t2 -105t2 -96q0 -22 -11 -22h-16q-10 0 -12 14q-4 64 -10 152q-3 20 -19 20q-9 0 -246.5 4t-242.5 4
q-13 0 -13 -18v-377q0 -240 52 -240q468 0 622 72q37 21 45 25q10 0 6 -13zM868 1494q-19 -11 -47 7q-61 39 -201 132q-72 -52 -194 -132q-28 -16 -48 -7q-6 6 17 33q55 72 139 174q10 13 17 13q20 2 61 2q61 0 71.5 -2t19.5 -9q66 -66 149 -178q21 -28 16 -33z" />
    <glyph glyph-name="Edieresis" unicode="&#xcb;" horiz-adv-x="1174" 
d="M1124 143q-28 -57 -67 -131q-8 -12 -21 -12h-946q-10 0 -10 12v31q0 10 8 10h148q20 0 20 21q0 9 -2 307.5t-2 308t-1 206t-1 208.5q0 203 -39 203h-121q-10 0 -10 10v33q0 10 12 10h895q18 0 48.5 2t29.5 2q13 0 10 -10q-14 -55 -35 -127q-8 -23 -16 -23l-14 15
q-37 36 -117 51q-112 20 -475 24q-12 0 -16.5 -12t-4.5 -496q0 -20 17 -20h489q14 0 16.5 15t8 64t6.5 54q0 19 12 19h15q12 0 12 -17q0 -4 -4 -83.5t-4 -94.5t2 -105t2 -96q0 -22 -11 -22h-16q-10 0 -12 14q-4 64 -10 152q-3 20 -19 20q-9 0 -246.5 4t-242.5 4
q-13 0 -13 -18v-377q0 -240 52 -240q468 0 622 72q37 21 45 25q10 0 6 -13zM877 1609q0 -47 -43 -83q-36 -32 -70 -32q-59 0 -59 60q0 33 30 69q36 44 89 44t53 -58zM572 1609q0 -47 -43 -83q-37 -32 -70 -32q-59 0 -59 60q0 33 30 69q36 44 89 44t53 -58z" />
    <glyph glyph-name="Igrave" unicode="&#xcc;" horiz-adv-x="670" 
d="M600 8q0 -8 -6 -8h-485q-9 0 -11 3t-2 7v31q0 9 3 10.5t7 1.5h136q14 0 14 29l-2 1034q0 189 -35 189h-127q-14 0 -14 10v35q0 8 10 8h485q9 0 9 -8v-37q0 -8 -11 -8h-141q-18 0 -18 -21q-2 -908 -2 -938q0 -148 1 -169q7 -124 40 -124h141q8 0 8 -8v-37zM523 1478
q-17 -10 -52 7q-134 63 -317 167q-29 17 -43 31q-10 10 10 10q89 0 135 7q16 2 31 -11q83 -64 221 -172q32 -25 15 -39z" />
    <glyph glyph-name="Iacute" unicode="&#xcd;" horiz-adv-x="670" 
d="M600 8q0 -8 -6 -8h-485q-9 0 -11 3t-2 7v31q0 9 3 10.5t7 1.5h136q14 0 14 29l-2 1034q0 189 -35 189h-127q-14 0 -14 10v35q0 8 10 8h485q9 0 9 -8v-37q0 -8 -11 -8h-141q-18 0 -18 -21q-2 -908 -2 -938q0 -148 1 -169q7 -124 40 -124h141q8 0 8 -8v-37zM553 1679
q-10 -10 -39 -27q-139 -79 -318 -167q-43 -26 -51 -7q-10 23 15 39l221 172q15 13 31 11q49 -7 137 -7q18 0 4 -14z" />
    <glyph glyph-name="Icircumflex" unicode="&#xce;" horiz-adv-x="670" 
d="M600 8q0 -8 -6 -8h-485q-9 0 -11 3t-2 7v31q0 9 3 10.5t7 1.5h136q14 0 14 29l-2 1034q0 189 -35 189h-127q-14 0 -14 10v35q0 8 10 8h485q9 0 9 -8v-37q0 -8 -11 -8h-141q-18 0 -18 -21q-2 -908 -2 -938q0 -148 1 -169q7 -124 40 -124h141q8 0 8 -8v-37zM579 1494
q-19 -11 -47 7q-61 39 -201 132q-72 -52 -194 -132q-28 -16 -48 -7q-6 6 17 33q55 72 139 174q10 13 17 13q20 2 61 2q61 0 71.5 -2t19.5 -9q66 -66 149 -178q21 -28 16 -33z" />
    <glyph glyph-name="Idieresis" unicode="&#xcf;" horiz-adv-x="670" 
d="M600 8q0 -8 -6 -8h-485q-9 0 -11 3t-2 7v31q0 9 3 10.5t7 1.5h136q14 0 14 29l-2 1034q0 189 -35 189h-127q-14 0 -14 10v35q0 8 10 8h485q9 0 9 -8v-37q0 -8 -11 -8h-141q-18 0 -18 -21q-2 -908 -2 -938q0 -148 1 -169q7 -124 40 -124h141q8 0 8 -8v-37zM584 1593
q0 -47 -43 -83q-36 -32 -70 -32q-59 0 -59 60q0 33 30 69q36 44 89 44t53 -58zM279 1593q0 -47 -43 -83q-37 -32 -70 -32q-59 0 -59 60q0 33 30 69q36 44 89 44t53 -58z" />
    <glyph glyph-name="Eth" unicode="&#xd0;" horiz-adv-x="1397" 
d="M1319 690q0 -415 -277 -600q-100 -67 -229 -88q-76 -12 -229 -12q-71 0 -184.5 5t-188.5 5h-111q-10 0 -10 10q0 3 -1 14.5t-1 18.5q0 10 12 10h140q16 0 16 31q0 15 -3 263.5t-3 270.5l1 246q2 218 1 240q-6 203 -37 203h-141q-11 0 -11 10v33q0 10 13 10h618
q154 0 244 -39q60 -26 88 -43q63 -37 123 -96q170 -170 170 -492zM1180 555q0 301 -156 496q-110 137 -242 190q-137 55 -270 55q-56 0 -78 -5t-22 -40q0 -15 -1 -247t-1 -263v-405q0 -260 32 -266q79 -15 269 -15q210 0 323 109q146 139 146 391zM727 670q0 -52 -18 -52
h-566l-40 2q-19 5 -19 29q0 45 20 45q34 -2 231.5 2.5t313.5 4.5q78 0 78 -31z" />
    <glyph glyph-name="Ntilde" unicode="&#xd1;" horiz-adv-x="1524" 
d="M1497 1319q0 -12 -10 -12h-139q-21 0 -21 -27q0 -8 -2 -272.5t-2 -286t-4 -357.5t-4 -354q0 -47 -12 -47q-14 0 -23 12q-91 122 -539 693q-159 213 -374 475q-14 12 -19 -8q-3 -13 -15 -367q-11 -358 -11 -449q0 -266 53 -266h133q10 0 10 -8v-37q0 -8 -8 -8h-393
q-13 0 -13 6v37q0 10 13 10h123q16 0 16 15v147q0 59 14.5 479t14.5 428q0 185 -127 185h-70q-8 0 -8 10v33q0 10 10 10h316q13 0 22 -16t165.5 -225.5t176.5 -233.5q224 -298 475 -615q4 -3 8 -3q7 0 9 28q1 19 0 354q-1 336 -2 363q-15 295 -72 295h-137q-13 0 -13 10v33
q0 10 11 10h436q12 0 12 -8v-33zM1044 1631q10 -23 -6 -45q-49 -69 -157 -69q-57 0 -113 28q-96 49 -137 49q-34 0 -64 -32q-20 -23 -35 16q-5 14 11 37q49 69 157 69q48 0 111 -28q108 -49 139 -49q29 0 62 32q20 21 32 -8z" />
    <glyph glyph-name="Ograve" unicode="&#xd2;" horiz-adv-x="1479" 
d="M1403 709q0 -316 -152 -494q-53 -63 -88 -91q-73 -58 -190 -101q-94 -35 -244 -35q-239 0 -360 61q-88 44 -148 113q-74 84 -106 185q-39 121 -39 319q0 135 37 256q44 143 131 241t250 162q115 45 256 45q214 0 327 -51q127 -57 199 -156q127 -173 127 -454zM1245 655
q0 144 -33 252q-37 125 -118 217q-74 84 -176 127q-118 49 -236 49q-153 0 -221 -49q-124 -88 -170 -194q-62 -140 -62 -342q0 -298 111 -469q67 -104 201 -166q105 -49 229 -49q140 0 258 78q92 60 158 206q59 133 59 340zM961 1478q-17 -10 -52 7q-134 63 -317 167
q-29 17 -43 31q-10 10 10 10q89 0 135 7q16 2 31 -11q83 -64 221 -172q32 -25 15 -39z" />
    <glyph glyph-name="Oacute" unicode="&#xd3;" horiz-adv-x="1479" 
d="M1403 709q0 -316 -152 -494q-53 -63 -88 -91q-73 -58 -190 -101q-94 -35 -244 -35q-239 0 -360 61q-88 44 -148 113q-74 84 -106 185q-39 121 -39 319q0 135 37 256q44 143 131 241t250 162q115 45 256 45q214 0 327 -51q127 -57 199 -156q127 -173 127 -454zM1245 655
q0 144 -33 252q-37 125 -118 217q-74 84 -176 127q-118 49 -236 49q-153 0 -221 -49q-124 -88 -170 -194q-62 -140 -62 -342q0 -298 111 -469q67 -104 201 -166q105 -49 229 -49q140 0 258 78q92 60 158 206q59 133 59 340zM920 1679q-10 -10 -39 -27q-139 -79 -318 -167
q-43 -26 -51 -7q-10 23 15 39l221 172q15 13 31 11q49 -7 137 -7q18 0 4 -14z" />
    <glyph glyph-name="Ocircumflex" unicode="&#xd4;" horiz-adv-x="1479" 
d="M1403 709q0 -316 -152 -494q-53 -63 -88 -91q-73 -58 -190 -101q-94 -35 -244 -35q-239 0 -360 61q-88 44 -148 113q-74 84 -106 185q-39 121 -39 319q0 135 37 256q44 143 131 241t250 162q115 45 256 45q214 0 327 -51q127 -57 199 -156q127 -173 127 -454zM1245 655
q0 144 -33 252q-37 125 -118 217q-74 84 -176 127q-118 49 -236 49q-153 0 -221 -49q-124 -88 -170 -194q-62 -140 -62 -342q0 -298 111 -469q67 -104 201 -166q105 -49 229 -49q140 0 258 78q92 60 158 206q59 133 59 340zM999 1524q-19 -11 -47 7q-61 39 -201 132
q-72 -52 -194 -132q-28 -16 -48 -7q-6 6 17 33q55 72 139 174q10 13 17 13q20 2 61 2q61 0 71.5 -2t19.5 -9q66 -66 149 -178q21 -28 16 -33z" />
    <glyph glyph-name="Otilde" unicode="&#xd5;" horiz-adv-x="1479" 
d="M1403 709q0 -316 -152 -494q-53 -63 -88 -91q-73 -58 -190 -101q-94 -35 -244 -35q-239 0 -360 61q-88 44 -148 113q-74 84 -106 185q-39 121 -39 319q0 135 37 256q44 143 131 241t250 162q115 45 256 45q214 0 327 -51q127 -57 199 -156q127 -173 127 -454zM1245 655
q0 144 -33 252q-37 125 -118 217q-74 84 -176 127q-118 49 -236 49q-153 0 -221 -49q-124 -88 -170 -194q-62 -140 -62 -342q0 -298 111 -469q67 -104 201 -166q105 -49 229 -49q140 0 258 78q92 60 158 206q59 133 59 340zM991 1641q10 -23 -6 -45q-49 -69 -157 -69
q-57 0 -113 28q-96 49 -137 49q-34 0 -64 -32q-20 -23 -35 16q-5 14 11 37q49 69 157 69q48 0 111 -28q108 -49 139 -49q29 0 62 32q20 21 32 -8z" />
    <glyph glyph-name="Odieresis" unicode="&#xd6;" horiz-adv-x="1479" 
d="M1403 709q0 -316 -152 -494q-53 -63 -88 -91q-73 -58 -190 -101q-94 -35 -244 -35q-239 0 -360 61q-88 44 -148 113q-74 84 -106 185q-39 121 -39 319q0 135 37 256q44 143 131 241t250 162q115 45 256 45q214 0 327 -51q127 -57 199 -156q127 -173 127 -454zM1245 655
q0 144 -33 252q-37 125 -118 217q-74 84 -176 127q-118 49 -236 49q-153 0 -221 -49q-124 -88 -170 -194q-62 -140 -62 -342q0 -298 111 -469q67 -104 201 -166q105 -49 229 -49q140 0 258 78q92 60 158 206q59 133 59 340zM983 1639q0 -47 -43 -83q-36 -32 -70 -32
q-59 0 -59 60q0 33 30 69q36 44 89 44t53 -58zM678 1639q0 -47 -43 -83q-37 -32 -70 -32q-59 0 -59 60q0 33 30 69q36 44 89 44t53 -58z" />
    <glyph glyph-name="multiply" unicode="&#xd7;" horiz-adv-x="987" 
d="M681 742.5q-60 -57.5 -114 -111.5q57 -57 113 -115q26 -27 51 -55q15 -14 -24 -53q-42 -42 -52 -32q-26 26 -52 53q-60 61 -119 120q-55 -56 -118 -117q-29 -29 -58 -57q-15 -14 -55 26q-32 32 -32 46q31 34 61 64q65 63 121 119q-54 54 -120 123q-30 32 -61 64
q-14 14 13 41q20 21 43.5 31.5t29.5 4.5q30 -32 61 -63q63 -65 117 -118q56 56 122 119q30 29 60 57q11 10 42 -13q37 -36 37 -67q-6 -9 -66 -66.5z" />
    <glyph glyph-name="Oslash" unicode="&#xd8;" horiz-adv-x="1479" 
d="M1271 1399q6 -5 -1 -17l-976 -1462q-11 -16 -24 -10q-16 8 -28 21q-8 7 1 20l978 1457q10 14 20 9q13 -6 30 -18zM1403 709q0 -316 -152 -494q-53 -63 -88 -91q-73 -58 -190 -101q-94 -35 -244 -35q-239 0 -360 61q-88 44 -148 113q-74 84 -106 185q-39 121 -39 319
q0 135 37 256q44 143 131 241t250 162q115 45 256 45q214 0 327 -51q127 -57 199 -156q127 -173 127 -454zM1245 655q0 144 -33 252q-37 125 -118 217q-74 84 -176 127q-118 49 -236 49q-153 0 -221 -49q-124 -88 -170 -194q-62 -140 -62 -342q0 -298 111 -469
q67 -104 201 -166q105 -49 229 -49q140 0 258 78q92 60 158 206q59 133 59 340z" />
    <glyph glyph-name="Ugrave" unicode="&#xd9;" horiz-adv-x="1544" 
d="M1458 1319q0 -12 -6 -12h-57q-77 0 -86 -2q-5 -19 -5 -44q-4 -64 -6 -200q-1 -193 5 -514q10 -576 -474 -576q-209 0 -339 45t-187 158q-47 94 -53 283q-4 123 -4 616q0 234 -39 234h-135q-11 0 -11 10v31q0 12 11 12h491q12 0 12 -8v-31q0 -14 -8 -14h-139
q-12 0 -14 -17q-6 -41 -6 -659q0 -215 12 -291q23 -143 133 -217t299 -74q188 0 301 113q86 86 86 340q0 336 -6 497q-12 308 -64 308h-129q-8 0 -10 3t-2 7v33q0 10 12 10h408q10 0 10 -10v-31zM935 1478q-17 -10 -52 7q-134 63 -317 167q-29 17 -43 31q-10 10 10 10
q89 0 135 7q16 2 31 -11q83 -64 221 -172q32 -25 15 -39z" />
    <glyph glyph-name="Uacute" unicode="&#xda;" horiz-adv-x="1544" 
d="M1458 1319q0 -12 -6 -12h-57q-77 0 -86 -2q-5 -19 -5 -44q-4 -64 -6 -200q-1 -193 5 -514q10 -576 -474 -576q-209 0 -339 45t-187 158q-47 94 -53 283q-4 123 -4 616q0 234 -39 234h-135q-11 0 -11 10v31q0 12 11 12h491q12 0 12 -8v-31q0 -14 -8 -14h-139
q-12 0 -14 -17q-6 -41 -6 -659q0 -215 12 -291q23 -143 133 -217t299 -74q188 0 301 113q86 86 86 340q0 336 -6 497q-12 308 -64 308h-129q-8 0 -10 3t-2 7v33q0 10 12 10h408q10 0 10 -10v-31zM1023 1679q-10 -10 -39 -27q-139 -79 -318 -167q-43 -26 -51 -7q-10 23 15 39
l221 172q15 13 31 11q49 -7 137 -7q18 0 4 -14z" />
    <glyph glyph-name="Ucircumflex" unicode="&#xdb;" horiz-adv-x="1544" 
d="M1458 1319q0 -12 -6 -12h-57q-77 0 -86 -2q-5 -19 -5 -44q-4 -64 -6 -200q-1 -193 5 -514q10 -576 -474 -576q-209 0 -339 45t-187 158q-47 94 -53 283q-4 123 -4 616q0 234 -39 234h-135q-11 0 -11 10v31q0 12 11 12h491q12 0 12 -8v-31q0 -14 -8 -14h-139
q-12 0 -14 -17q-6 -41 -6 -659q0 -215 12 -291q23 -143 133 -217t299 -74q188 0 301 113q86 86 86 340q0 336 -6 497q-12 308 -64 308h-129q-8 0 -10 3t-2 7v33q0 10 12 10h408q10 0 10 -10v-31zM1027 1504q-19 -11 -47 7q-61 39 -201 132q-72 -52 -194 -132q-28 -16 -48 -7
q-6 6 17 33q55 72 139 174q10 13 17 13q20 2 61 2q61 0 71.5 -2t19.5 -9q66 -66 149 -178q21 -28 16 -33z" />
    <glyph glyph-name="Udieresis" unicode="&#xdc;" horiz-adv-x="1544" 
d="M1458 1319q0 -12 -6 -12h-57q-77 0 -86 -2q-5 -19 -5 -44q-4 -64 -6 -200q-1 -193 5 -514q10 -576 -474 -576q-209 0 -339 45t-187 158q-47 94 -53 283q-4 123 -4 616q0 234 -39 234h-135q-11 0 -11 10v31q0 12 11 12h491q12 0 12 -8v-31q0 -14 -8 -14h-139
q-12 0 -14 -17q-6 -41 -6 -659q0 -215 12 -291q23 -143 133 -217t299 -74q188 0 301 113q86 86 86 340q0 336 -6 497q-12 308 -64 308h-129q-8 0 -10 3t-2 7v33q0 10 12 10h408q10 0 10 -10v-31zM1057 1639q0 -47 -43 -83q-36 -32 -70 -32q-59 0 -59 60q0 33 30 69
q36 44 89 44t53 -58zM752 1639q0 -47 -43 -83q-37 -32 -70 -32q-59 0 -59 60q0 33 30 69q36 44 89 44t53 -58z" />
    <glyph glyph-name="Yacute" unicode="&#xdd;" horiz-adv-x="1212" 
d="M1198 1315q0 -8 -6 -8h-70q-26 0 -55 -47q-71 -117 -172 -285q-97 -153 -201 -322q-10 -22 -10 -32q0 -4 -1 -185t-1 -196q0 -187 39 -187h172q5 0 7.5 -2t2.5 -10v-33q0 -8 -8 -8h-539q-14 0 -14 12v27q0 14 12 14h164q17 0 17 25l-3 534q0 30 -10 43q-17 23 -184 301
q-72 122 -197 308q-35 43 -82 43h-36q-9 0 -11 3t-2 7v29q0 14 13 14h448q14 0 14 -12v-31q0 -10 -8 -10h-115q-26 0 -26 -21q0 -15 12 -41q62 -104 148 -250q120 -214 157 -266q12 -17 21 -6q35 45 119.5 188t111.5 203q45 98 45 168q0 25 -26 25h-88q-9 0 -9 8v35
q0 10 9 10h354q8 0 8 -8v-37zM852 1679q-10 -10 -39 -27q-139 -79 -318 -167q-43 -26 -51 -7q-10 23 15 39l221 172q15 13 31 11q49 -7 137 -7q18 0 4 -14z" />
    <glyph glyph-name="Thorn" unicode="&#xde;" horiz-adv-x="1130" 
d="M1077 670q0 -153 -104 -262q-109 -115 -322 -115q-109 0 -231 35q-8 4 -8 -6v-43q0 -228 41 -228h180q12 0 12 -12v-27q0 -12 -6 -12h-539q-8 0 -8 8v31q0 12 10 12h138q16 0 16 25v1030q0 186 -25 186h-137q-14 0 -14 8v35q0 11 12 11h250q10 0 130.5 1t164.5 1
q8 0 8 -13v-26q0 -13 -12 -13h-180q-41 0 -41 -211q0 -19 22 -20q30 -1 95 1q70 3 67 3q110 0 180 -14q115 -24 201 -113q100 -104 100 -272zM920 655q0 133 -99 232q-116 117 -325 117q-63 0 -70.5 -2.5t-9.5 -20t-2 -307.5q0 -10 -1 -142t-1 -139q0 -13 14 -18
q64 -25 192 -25q150 0 222 72q80 80 80 233z" />
    <glyph glyph-name="germandbls" unicode="&#xdf;" horiz-adv-x="1090" 
d="M1059 258q0 -109 -55 -182q-68 -90 -228 -90q-171 0 -291 104q-12 11 -12 43q-4 41 -4 146q0 18 14 18q16 1 20 -7q2 -9 17 -75q12 -53 47 -102q29 -40 68 -56q56 -22 139 -22q93 0 158 61q45 43 45 119q0 45 -35 78q-46 44 -125 63q-8 3 -52 20.5t-52 20.5
q-216 104 -216 282q0 85 58 149q131 144 131 335q0 189 -105 261q-55 38 -114 38q-53 0 -86 -36q-54 -58 -54 -184q0 -7 2.5 -488t2.5 -496q0 -52 30 -231q2 -11 -4.5 -20t-17.5 -9l-293 2q-10 0 -10 6v37q0 5 2 7.5t10 2.5h137q15 0 15 17q0 6 -3 130t-3 136v485
q0 25 -13 25q-11 0 -82 -2q-5 0 -7.5 2t-2.5 12v35q0 16 12 16q4 0 37 1t44.5 1t11.5 15l-2 299q-1 150 103 232q86 68 199 68q105 0 175 -108t70 -260q0 -173 -109 -325q-49 -69 -49 -116q0 -115 153 -165q56 -18 133 -47q81 -30 129 -80q62 -63 62 -166z" />
    <glyph glyph-name="agrave" unicode="&#xe0;" 
d="M874 66q0 -5 -4 -13q-57 -57 -82 -73q-9 -7 -18 -7q-59 0 -117 55q-54 51 -80 122q-6 18 -16 4q-11 -17 -56 -58t-63 -51q-98 -57 -178 -57q-76 0 -113 26q-57 42 -57 125q0 98 62 185q44 62 137 104q101 46 270 78q9 2 10 22q7 153 0 207q-6 53 -46 79t-113 26
q-103 0 -144 -25q-24 -17 -20 -35v-28q0 -44 -23 -78q-36 -56 -84 -56q-35 0 -35 46q0 39 45 97t99 91q97 59 266 59q112 0 162 -47q37 -34 37 -143q0 -79 -9.5 -238t-9.5 -180q0 -99 51 -160q37 -43 115 -65q14 -6 14 -12zM565 440q0 19 -16 19q-78 0 -174 -43
q-162 -73 -162 -197q0 -76 37 -104q31 -25 98 -25q90 0 178 78q24 21 27 51q12 119 12 221zM635 1013q-17 -10 -52 7q-134 63 -317 167q-29 17 -43 31q-10 10 10 10q89 0 135 7q16 2 31 -11q83 -64 221 -172q32 -25 15 -39z" />
    <glyph glyph-name="aacute" unicode="&#xe1;" 
d="M874 66q0 -5 -4 -13q-57 -57 -82 -73q-9 -7 -18 -7q-59 0 -117 55q-54 51 -80 122q-6 18 -16 4q-11 -17 -56 -58t-63 -51q-98 -57 -178 -57q-76 0 -113 26q-57 42 -57 125q0 98 62 185q44 62 137 104q101 46 270 78q9 2 10 22q7 153 0 207q-6 53 -46 79t-113 26
q-103 0 -144 -25q-24 -17 -20 -35v-28q0 -44 -23 -78q-36 -56 -84 -56q-35 0 -35 46q0 39 45 97t99 91q97 59 266 59q112 0 162 -47q37 -34 37 -143q0 -79 -9.5 -238t-9.5 -180q0 -99 51 -160q37 -43 115 -65q14 -6 14 -12zM565 440q0 19 -16 19q-78 0 -174 -43
q-162 -73 -162 -197q0 -76 37 -104q31 -25 98 -25q90 0 178 78q24 21 27 51q12 119 12 221zM684 1214q-10 -10 -39 -27q-139 -79 -318 -167q-43 -26 -51 -7q-10 23 15 39l221 172q15 13 31 11q49 -7 137 -7q18 0 4 -14z" />
    <glyph glyph-name="acircumflex" unicode="&#xe2;" 
d="M874 66q0 -5 -4 -13q-57 -57 -82 -73q-9 -7 -18 -7q-59 0 -117 55q-54 51 -80 122q-6 18 -16 4q-11 -17 -56 -58t-63 -51q-98 -57 -178 -57q-76 0 -113 26q-57 42 -57 125q0 98 62 185q44 62 137 104q101 46 270 78q9 2 10 22q7 153 0 207q-6 53 -46 79t-113 26
q-103 0 -144 -25q-24 -17 -20 -35v-28q0 -44 -23 -78q-36 -56 -84 -56q-35 0 -35 46q0 39 45 97t99 91q97 59 266 59q112 0 162 -47q37 -34 37 -143q0 -79 -9.5 -238t-9.5 -180q0 -99 51 -160q37 -43 115 -65q14 -6 14 -12zM565 440q0 19 -16 19q-78 0 -174 -43
q-162 -73 -162 -197q0 -76 37 -104q31 -25 98 -25q90 0 178 78q24 21 27 51q12 119 12 221zM686 1015q-19 -11 -47 7q-61 39 -201 132q-72 -52 -194 -132q-28 -16 -48 -7q-6 6 17 33q55 72 139 174q10 13 17 13q20 2 61 2q61 0 71.5 -2t19.5 -9q66 -66 149 -178
q21 -28 16 -33z" />
    <glyph glyph-name="atilde" unicode="&#xe3;" 
d="M874 66q0 -5 -4 -13q-57 -57 -82 -73q-9 -7 -18 -7q-59 0 -117 55q-54 51 -80 122q-6 18 -16 4q-11 -17 -56 -58t-63 -51q-98 -57 -178 -57q-76 0 -113 26q-57 42 -57 125q0 98 62 185q44 62 137 104q101 46 270 78q9 2 10 22q7 153 0 207q-6 53 -46 79t-113 26
q-103 0 -144 -25q-24 -17 -20 -35v-28q0 -44 -23 -78q-36 -56 -84 -56q-35 0 -35 46q0 39 45 97t99 91q97 59 266 59q112 0 162 -47q37 -34 37 -143q0 -79 -9.5 -238t-9.5 -180q0 -99 51 -160q37 -43 115 -65q14 -6 14 -12zM565 440q0 19 -16 19q-78 0 -174 -43
q-162 -73 -162 -197q0 -76 37 -104q31 -25 98 -25q90 0 178 78q24 21 27 51q12 119 12 221zM702 1161q10 -23 -6 -45q-49 -69 -157 -69q-57 0 -113 28q-96 49 -137 49q-34 0 -64 -32q-20 -23 -35 16q-5 14 11 37q49 69 157 69q48 0 111 -28q108 -49 139 -49q29 0 62 32
q20 21 32 -8z" />
    <glyph glyph-name="adieresis" unicode="&#xe4;" 
d="M874 66q0 -5 -4 -13q-57 -57 -82 -73q-9 -7 -18 -7q-59 0 -117 55q-54 51 -80 122q-6 18 -16 4q-11 -17 -56 -58t-63 -51q-98 -57 -178 -57q-76 0 -113 26q-57 42 -57 125q0 98 62 185q44 62 137 104q101 46 270 78q9 2 10 22q7 153 0 207q-6 53 -46 79t-113 26
q-103 0 -144 -25q-24 -17 -20 -35v-28q0 -44 -23 -78q-36 -56 -84 -56q-35 0 -35 46q0 39 45 97t99 91q97 59 266 59q112 0 162 -47q37 -34 37 -143q0 -79 -9.5 -238t-9.5 -180q0 -99 51 -160q37 -43 115 -65q14 -6 14 -12zM565 440q0 19 -16 19q-78 0 -174 -43
q-162 -73 -162 -197q0 -76 37 -104q31 -25 98 -25q90 0 178 78q24 21 27 51q12 119 12 221zM696 1159q0 -47 -43 -83q-36 -32 -70 -32q-59 0 -59 60q0 33 30 69q36 44 89 44t53 -58zM391 1159q0 -47 -43 -83q-37 -32 -70 -32q-59 0 -59 60q0 33 30 69q36 44 89 44t53 -58z
" />
    <glyph glyph-name="aring" unicode="&#xe5;" 
d="M874 66q0 -5 -4 -13q-57 -57 -82 -73q-9 -7 -18 -7q-59 0 -117 55q-54 51 -80 122q-6 18 -16 4q-11 -17 -56 -58t-63 -51q-98 -57 -178 -57q-76 0 -113 26q-57 42 -57 125q0 98 62 185q44 62 137 104q101 46 270 78q9 2 10 22q7 153 0 207q-6 53 -46 79t-113 26
q-103 0 -144 -25q-24 -17 -20 -35v-28q0 -44 -23 -78q-36 -56 -84 -56q-35 0 -35 46q0 39 45 97t99 91q97 59 266 59q112 0 162 -47q37 -34 37 -143q0 -79 -9.5 -238t-9.5 -180q0 -99 51 -160q37 -43 115 -65q14 -6 14 -12zM565 440q0 19 -16 19q-78 0 -174 -43
q-162 -73 -162 -197q0 -76 37 -104q31 -25 98 -25q90 0 178 78q24 21 27 51q12 119 12 221zM625 1170q0 -75 -53.5 -127.5t-129.5 -52.5q-75 0 -128.5 52.5t-53.5 127.5q0 76 53.5 129.5t128.5 53.5q76 0 129.5 -53.5t53.5 -129.5zM567 1170q0 51 -37 88t-88 37
q-50 0 -87.5 -37t-37.5 -88q0 -50 37.5 -86t87.5 -36q51 0 88 36t37 86z" />
    <glyph glyph-name="ae" unicode="&#xe6;" horiz-adv-x="1372" 
d="M1341 135q0 -2 -2 -6q-30 -31 -51 -46q-37 -26 -100 -54q-101 -45 -219 -45q-176 0 -281 104q-39 39 -70 90q-10 14 -16 4q-42 -63 -164 -139q-88 -55 -178 -55q-76 0 -113 26q-57 42 -57 125q0 98 62 185q44 62 137 104q101 46 270 78q9 2 10 22q7 153 0 207
q-6 53 -46 79t-113 26q-103 0 -144 -25q-24 -17 -20 -35v-28q0 -44 -23 -78q-36 -56 -84 -56q-35 0 -35 46q0 39 45 97t99 91q97 59 266 59q113 0 162 -47q18 -17 22 -41q101 101 252 101q72 0 119 -23q35 -17 115 -74q94 -67 127 -139q8 -18 8 -31q0 -11 -19 -18
q-37 -15 -223 -49q-210 -39 -280 -39q-6 0 -47.5 -1t-49.5 -1q-12 0 -12 -47q0 -207 152 -338q80 -70 266 -70q94 0 156 21q43 14 59 30q3 2 8 5q5 0 8 -7q2 -3 4 -8zM1155 670q0 8 -10 26q-44 76 -107 126q-66 50 -151 50q-64 0 -121 -77q-21 -29 -45 -89q-27 -65 -27 -100
q0 -16 13 -16q-10 0 172 14q173 14 260 47q16 7 16 19zM565 440q0 19 -16 19q-78 0 -174 -43q-162 -73 -162 -197q0 -76 37 -104q31 -25 98 -25q90 0 178 78q24 21 27 51q12 119 12 221z" />
    <glyph glyph-name="ccedilla" unicode="&#xe7;" 
d="M858 164q0 -15 -49 -53q-161 -125 -346 -125q-110 0 -174 34q-96 52 -166 177q-57 101 -57 256q0 104 24 194q32 118 123 197q99 86 274 86q156 0 263 -103q57 -55 57 -100q0 -47 -37 -47q-50 0 -102 51q-47 47 -64 105q-7 24 -45.5 30t-77.5 6q-50 0 -82 -6
q-83 -16 -131 -69q-80 -89 -80 -279q0 -194 129 -330q58 -60 142 -78q43 -10 135 -10q124 0 211 62q12 8 29 20q4 2 12 2q12 -11 12 -20zM627 -231q0 -60 -43 -101.5t-111 -41.5q-76 0 -125 49q-8 6 -8 16q0 4 2 8q11 15 22 8q57 -30 82 -30q99 0 99 108q0 82 -80 82
q-24 0 -47 -14q-12 -7 -31 12q-12 10 0 31q28 38 63 92h37l-45 -76q17 4 31 4q154 0 154 -147z" />
    <glyph glyph-name="egrave" unicode="&#xe8;" horiz-adv-x="877" 
d="M846 135q0 -2 -2 -6q-31 -31 -52 -46q-37 -26 -100 -54q-101 -45 -219 -45q-176 0 -280 104q-127 127 -127 309q0 130 14 191q35 149 123 235q102 101 252 101q72 0 118 -23q36 -17 115 -74q94 -67 127 -139q8 -18 8 -31q0 -11 -18 -18q-38 -15 -223 -49
q-211 -39 -281 -39q-6 0 -47.5 -1t-48.5 -1q-12 0 -12 -47q0 -207 151 -338q81 -70 266 -70q95 0 156 21q43 14 59 30q3 2 9 5q5 0 8 -7q2 -3 4 -8zM659 670q0 8 -10 26q-43 76 -108 126t-150 50q-63 0 -121 -77q-21 -29 -45 -89q-26 -65 -26 -100q0 -16 12 -16
q-10 0 172 14q173 14 260 47q16 7 16 19zM588 1013q-17 -10 -52 7q-134 63 -317 167q-29 17 -43 31q-10 10 10 10q89 0 135 7q16 2 31 -11q83 -64 221 -172q32 -25 15 -39z" />
    <glyph glyph-name="eacute" unicode="&#xe9;" horiz-adv-x="877" 
d="M846 135q0 -2 -2 -6q-31 -31 -52 -46q-37 -26 -100 -54q-101 -45 -219 -45q-176 0 -280 104q-127 127 -127 309q0 130 14 191q35 149 123 235q102 101 252 101q72 0 118 -23q36 -17 115 -74q94 -67 127 -139q8 -18 8 -31q0 -11 -18 -18q-38 -15 -223 -49
q-211 -39 -281 -39q-6 0 -47.5 -1t-48.5 -1q-12 0 -12 -47q0 -207 151 -338q81 -70 266 -70q95 0 156 21q43 14 59 30q3 2 9 5q5 0 8 -7q2 -3 4 -8zM659 670q0 8 -10 26q-43 76 -108 126t-150 50q-63 0 -121 -77q-21 -29 -45 -89q-26 -65 -26 -100q0 -16 12 -16
q-10 0 172 14q173 14 260 47q16 7 16 19zM705 1214q-10 -10 -39 -27q-139 -79 -318 -167q-43 -26 -51 -7q-10 23 15 39l221 172q15 13 31 11q49 -7 137 -7q18 0 4 -14z" />
    <glyph glyph-name="ecircumflex" unicode="&#xea;" horiz-adv-x="877" 
d="M846 135q0 -2 -2 -6q-31 -31 -52 -46q-37 -26 -100 -54q-101 -45 -219 -45q-176 0 -280 104q-127 127 -127 309q0 130 14 191q35 149 123 235q102 101 252 101q72 0 118 -23q36 -17 115 -74q94 -67 127 -139q8 -18 8 -31q0 -11 -18 -18q-38 -15 -223 -49
q-211 -39 -281 -39q-6 0 -47.5 -1t-48.5 -1q-12 0 -12 -47q0 -207 151 -338q81 -70 266 -70q95 0 156 21q43 14 59 30q3 2 9 5q5 0 8 -7q2 -3 4 -8zM659 670q0 8 -10 26q-43 76 -108 126t-150 50q-63 0 -121 -77q-21 -29 -45 -89q-26 -65 -26 -100q0 -16 12 -16
q-10 0 172 14q173 14 260 47q16 7 16 19zM669 1015q-19 -11 -47 7q-61 39 -201 132q-72 -52 -194 -132q-28 -16 -48 -7q-6 6 17 33q55 72 139 174q10 13 17 13q20 2 61 2q61 0 71.5 -2t19.5 -9q66 -66 149 -178q21 -28 16 -33z" />
    <glyph glyph-name="edieresis" unicode="&#xeb;" horiz-adv-x="877" 
d="M846 135q0 -2 -2 -6q-31 -31 -52 -46q-37 -26 -100 -54q-101 -45 -219 -45q-176 0 -280 104q-127 127 -127 309q0 130 14 191q35 149 123 235q102 101 252 101q72 0 118 -23q36 -17 115 -74q94 -67 127 -139q8 -18 8 -31q0 -11 -18 -18q-38 -15 -223 -49
q-211 -39 -281 -39q-6 0 -47.5 -1t-48.5 -1q-12 0 -12 -47q0 -207 151 -338q81 -70 266 -70q95 0 156 21q43 14 59 30q3 2 9 5q5 0 8 -7q2 -3 4 -8zM659 670q0 8 -10 26q-43 76 -108 126t-150 50q-63 0 -121 -77q-21 -29 -45 -89q-26 -65 -26 -100q0 -16 12 -16
q-10 0 172 14q173 14 260 47q16 7 16 19zM676 1159q0 -47 -43 -83q-36 -32 -70 -32q-59 0 -59 60q0 33 30 69q36 44 89 44t53 -58zM371 1159q0 -47 -43 -83q-37 -32 -70 -32q-59 0 -59 60q0 33 30 69q36 44 89 44t53 -58z" />
    <glyph glyph-name="igrave" unicode="&#xec;" horiz-adv-x="555" 
d="M530 10q0 -10 -12 -10h-475q-10 0 -10 12v31q0 14 8 14h145q19 0 19 21q0 6 1 242.5t1 261.5q0 156 -3 187q-11 93 -54 93h-99q-16 0 -16 10v35q0 13 10 13h59q93 0 179 8q64 6 59 6q23 0 23 -31q0 -3 -7.5 -297.5t-7.5 -308.5q0 -240 49 -240h121q10 0 10 -10v-37z
M398 1013q-17 -10 -52 7q-134 63 -317 167q-29 17 -43 31q-10 10 10 10q89 0 135 7q16 2 31 -11q83 -64 221 -172q32 -25 15 -39z" />
    <glyph glyph-name="iacute" unicode="&#xed;" horiz-adv-x="555" 
d="M530 10q0 -10 -12 -10h-475q-10 0 -10 12v31q0 14 8 14h145q19 0 19 21q0 6 1 242.5t1 261.5q0 156 -3 187q-11 93 -54 93h-99q-16 0 -16 10v35q0 13 10 13h59q93 0 179 8q64 6 59 6q23 0 23 -31q0 -3 -7.5 -297.5t-7.5 -308.5q0 -240 49 -240h121q10 0 10 -10v-37z
M475 1214q-10 -10 -39 -27q-139 -79 -318 -167q-43 -26 -51 -7q-10 23 15 39l221 172q15 13 31 11q49 -7 137 -7q18 0 4 -14z" />
    <glyph glyph-name="icircumflex" unicode="&#xee;" horiz-adv-x="555" 
d="M530 10q0 -10 -12 -10h-475q-10 0 -10 12v31q0 14 8 14h145q19 0 19 21q0 6 1 242.5t1 261.5q0 156 -3 187q-11 93 -54 93h-99q-16 0 -16 10v35q0 13 10 13h59q93 0 179 8q64 6 59 6q23 0 23 -31q0 -3 -7.5 -297.5t-7.5 -308.5q0 -240 49 -240h121q10 0 10 -10v-37z
M500 1015q-19 -11 -47 7q-61 39 -201 132q-72 -52 -194 -132q-28 -16 -48 -7q-6 6 17 33q55 72 139 174q10 13 17 13q20 2 61 2q61 0 71.5 -2t19.5 -9q66 -66 149 -178q21 -28 16 -33z" />
    <glyph glyph-name="idieresis" unicode="&#xef;" horiz-adv-x="555" 
d="M530 10q0 -10 -12 -10h-475q-10 0 -10 12v31q0 14 8 14h145q19 0 19 21q0 6 1 242.5t1 261.5q0 156 -3 187q-11 93 -54 93h-99q-16 0 -16 10v35q0 13 10 13h59q93 0 179 8q64 6 59 6q23 0 23 -31q0 -3 -7.5 -297.5t-7.5 -308.5q0 -240 49 -240h121q10 0 10 -10v-37z
M481 1159q0 -47 -43 -83q-36 -32 -70 -32q-59 0 -59 60q0 33 30 69q36 44 89 44t53 -58zM176 1159q0 -47 -43 -83q-37 -32 -70 -32q-59 0 -59 60q0 33 30 69q36 44 89 44t53 -58z" />
    <glyph glyph-name="eth" unicode="&#xf0;" horiz-adv-x="1083" 
d="M938 1383q9 -13 9 -22q0 -19 -49 -41q-53 -24 -150 -57q81 -171 129 -403q38 -185 38 -301q0 -204 -152 -386q-156 -185 -339 -185q-108 0 -166 32q-90 51 -135 152q-57 129 -57 274q0 246 124 369q108 107 277 107q95 0 149 -18q37 -13 109 -58q12 -8 17 -3q4 4 1 21
q-17 115 -106 353q-71 -22 -180 -57q-28 -9 -36 -7q-10 2 -19 26q-8 21 20 34q33 15 187 72q-94 184 -250 184q-82 0 -201 -94q-14 -11 -35 19q-19 26 -6 36q109 89 215 89q117 0 192 -34q98 -44 183 -161q74 21 164 55q57 22 67 4zM776 565q-11 170 -71.5 232.5
t-219.5 62.5q-141 0 -211 -82q-88 -103 -88 -297q0 -76 29 -160q24 -72 51 -106q48 -60 92 -81q50 -23 142 -23q137 0 202 75q77 89 77 296q0 39 -3 83z" />
    <glyph glyph-name="ntilde" unicode="&#xf1;" horiz-adv-x="1092" 
d="M1075 12q0 -12 -8 -12h-422q-10 0 -10 8v35q0 10 10 10h107q13 0 18 17q14 105 14 465q0 168 -51.5 217t-157.5 49q-134 0 -221 -60q-14 -9 -14 -26q-6 -43 -6 -453q0 -209 31 -209h137q10 0 10 -10v-35q0 -8 -10 -8h-449q-5 0 -7.5 2t-2.5 10v33q0 8 10 8h127
q15 0 15 19q0 6 3 319.5t3 329.5q0 149 -31 149h-121q-12 0 -12 13v30q0 9 8 9h129q11 0 52.5 2t43.5 2q10 1 31 5.5t29 4.5q14 0 14 -23q0 -5 -2 -52t-2 -54q0 -31 12 -19q86 70 166 105q76 33 146 33q107 0 178 -70q76 -74 76 -276q0 -67 -6.5 -226.5t-6.5 -156.5
q0 -146 21 -146h137q12 0 12 -6v-33zM788 1161q10 -23 -6 -45q-49 -69 -157 -69q-57 0 -113 28q-96 49 -137 49q-34 0 -64 -32q-20 -23 -35 16q-5 14 11 37q49 69 157 69q48 0 111 -28q108 -49 139 -49q29 0 62 32q20 21 32 -8z" />
    <glyph glyph-name="ograve" unicode="&#xf2;" horiz-adv-x="1006" 
d="M940 463q0 -130 -43 -232q-50 -118 -182 -192q-91 -51 -211 -51q-136 0 -193 24q-122 54 -183.5 178.5t-61.5 264.5q0 154 67 272q61 106 172 162q86 43 244 43q128 0 203 -47q98 -62 145 -176q43 -105 43 -246zM799 414q0 208 -99 325q-101 121 -264 121q-85 0 -116 -14
q-21 -9 -48 -47q-59 -86 -59 -256q0 -177 63 -324q44 -101 117 -145q64 -39 142 -39q90 0 139 28q59 35 96 134q29 75 29 217zM643 1013q-17 -10 -52 7q-134 63 -317 167q-29 17 -43 31q-10 10 10 10q89 0 135 7q16 2 31 -11q83 -64 221 -172q32 -25 15 -39z" />
    <glyph glyph-name="oacute" unicode="&#xf3;" horiz-adv-x="1006" 
d="M940 463q0 -130 -43 -232q-50 -118 -182 -192q-91 -51 -211 -51q-136 0 -193 24q-122 54 -183.5 178.5t-61.5 264.5q0 154 67 272q61 106 172 162q86 43 244 43q128 0 203 -47q98 -62 145 -176q43 -105 43 -246zM799 414q0 208 -99 325q-101 121 -264 121q-85 0 -116 -14
q-21 -9 -48 -47q-59 -86 -59 -256q0 -177 63 -324q44 -101 117 -145q64 -39 142 -39q90 0 139 28q59 35 96 134q29 75 29 217zM717 1214q-10 -10 -39 -27q-139 -79 -318 -167q-43 -26 -51 -7q-10 23 15 39l221 172q15 13 31 11q49 -7 137 -7q18 0 4 -14z" />
    <glyph glyph-name="ocircumflex" unicode="&#xf4;" horiz-adv-x="1006" 
d="M940 463q0 -130 -43 -232q-50 -118 -182 -192q-91 -51 -211 -51q-136 0 -193 24q-122 54 -183.5 178.5t-61.5 264.5q0 154 67 272q61 106 172 162q86 43 244 43q128 0 203 -47q98 -62 145 -176q43 -105 43 -246zM799 414q0 208 -99 325q-101 121 -264 121q-85 0 -116 -14
q-21 -9 -48 -47q-59 -86 -59 -256q0 -177 63 -324q44 -101 117 -145q64 -39 142 -39q90 0 139 28q59 35 96 134q29 75 29 217zM718 1044q-19 -11 -47 7q-61 39 -201 132q-72 -52 -194 -132q-28 -16 -48 -7q-6 6 17 33q55 72 139 174q10 13 17 13q20 2 61 2q61 0 71.5 -2
t19.5 -9q66 -66 149 -178q21 -28 16 -33z" />
    <glyph glyph-name="otilde" unicode="&#xf5;" horiz-adv-x="1006" 
d="M940 463q0 -130 -43 -232q-50 -118 -182 -192q-91 -51 -211 -51q-136 0 -193 24q-122 54 -183.5 178.5t-61.5 264.5q0 154 67 272q61 106 172 162q86 43 244 43q128 0 203 -47q98 -62 145 -176q43 -105 43 -246zM799 414q0 208 -99 325q-101 121 -264 121q-85 0 -116 -14
q-21 -9 -48 -47q-59 -86 -59 -256q0 -177 63 -324q44 -101 117 -145q64 -39 142 -39q90 0 139 28q59 35 96 134q29 75 29 217zM753 1126q10 -23 -6 -45q-49 -69 -157 -69q-57 0 -113 28q-96 49 -137 49q-34 0 -64 -32q-20 -23 -35 16q-5 14 11 37q49 69 157 69q48 0 111 -28
q108 -49 139 -49q29 0 62 32q20 21 32 -8z" />
    <glyph glyph-name="odieresis" unicode="&#xf6;" horiz-adv-x="1006" 
d="M940 463q0 -130 -43 -232q-50 -118 -182 -192q-91 -51 -211 -51q-136 0 -193 24q-122 54 -183.5 178.5t-61.5 264.5q0 154 67 272q61 106 172 162q86 43 244 43q128 0 203 -47q98 -62 145 -176q43 -105 43 -246zM799 414q0 208 -99 325q-101 121 -264 121q-85 0 -116 -14
q-21 -9 -48 -47q-59 -86 -59 -256q0 -177 63 -324q44 -101 117 -145q64 -39 142 -39q90 0 139 28q59 35 96 134q29 75 29 217zM702 1124q0 -47 -43 -83q-36 -32 -70 -32q-59 0 -59 60q0 33 30 69q36 44 89 44t53 -58zM397 1124q0 -47 -43 -83q-37 -32 -70 -32q-59 0 -59 60
q0 33 30 69q36 44 89 44t53 -58z" />
    <glyph glyph-name="divide" unicode="&#xf7;" horiz-adv-x="987" 
d="M571 881q0 -92 -92 -92q-80 0 -80 82q0 94 102 94q70 0 70 -84zM828 627q0 -35 -15 -35q-53 0 -313.5 2t-304.5 2q-21 0 -21 22q0 45 27 45q57 0 314.5 -2t291.5 -2q21 0 21 -32zM583 375q0 -86 -90 -86q-82 0 -82 76q0 94 105 94q30 0 49 -28q18 -24 18 -56z" />
    <glyph glyph-name="oslash" unicode="&#xf8;" horiz-adv-x="1006" 
d="M843 950l-659 -985q-13 -19 -20 -15q-9 6 -26 17q-7 4 2 18l659 986q12 17 18 14q9 -4 26 -13q11 -6 0 -22zM940 463q0 -130 -43 -232q-50 -118 -182 -192q-91 -51 -211 -51q-136 0 -193 24q-122 54 -183.5 178.5t-61.5 264.5q0 154 67 272q61 106 172 162q86 43 244 43
q128 0 203 -47q98 -62 145 -176q43 -105 43 -246zM799 414q0 208 -99 325q-101 121 -264 121q-85 0 -116 -14q-21 -9 -48 -47q-59 -86 -59 -256q0 -177 63 -324q44 -101 117 -145q64 -39 142 -39q90 0 139 28q59 35 96 134q29 75 29 217z" />
    <glyph glyph-name="ugrave" unicode="&#xf9;" horiz-adv-x="1083" 
d="M1006 41q0 -9 -9 -14q-25 -10 -63 -27q-10 -6 -31 -20q-6 -7 -18 -7q2 0 -27 15q-53 33 -86 149q-5 17 -20 4q-33 -27 -185 -116q-62 -37 -207 -37q-82 0 -133 71q-47 67 -47 156v395q0 252 -41 252h-119q-14 0 -14 10v33q0 10 8 10h123q5 0 49.5 3.5t53.5 3.5q73 8 65 8
q17 0 17 -27q0 -2 -2.5 -305.5t-2.5 -329.5q0 -94 42 -130q36 -32 122 -32t271 82q10 0 10 17v514q0 139 -41 139h-119q-12 0 -12 10v33q0 10 8 10h129q61 0 104 7q58 8 60 8q14 0 14 -29q0 -4 -2 -314.5t-2 -326.5q0 -141 92 -199q13 -7 13 -16zM685 1013q-17 -10 -52 7
q-134 63 -317 167q-29 17 -43 31q-10 10 10 10q89 0 135 7q16 2 31 -11q83 -64 221 -172q32 -25 15 -39z" />
    <glyph glyph-name="uacute" unicode="&#xfa;" horiz-adv-x="1083" 
d="M1006 41q0 -9 -9 -14q-25 -10 -63 -27q-10 -6 -31 -20q-6 -7 -18 -7q2 0 -27 15q-53 33 -86 149q-5 17 -20 4q-33 -27 -185 -116q-62 -37 -207 -37q-82 0 -133 71q-47 67 -47 156v395q0 252 -41 252h-119q-14 0 -14 10v33q0 10 8 10h123q5 0 49.5 3.5t53.5 3.5q73 8 65 8
q17 0 17 -27q0 -2 -2.5 -305.5t-2.5 -329.5q0 -94 42 -130q36 -32 122 -32t271 82q10 0 10 17v514q0 139 -41 139h-119q-12 0 -12 10v33q0 10 8 10h129q61 0 104 7q58 8 60 8q14 0 14 -29q0 -4 -2 -314.5t-2 -326.5q0 -141 92 -199q13 -7 13 -16zM733 1214q-10 -10 -39 -27
q-139 -79 -318 -167q-43 -26 -51 -7q-10 23 15 39l221 172q15 13 31 11q49 -7 137 -7q18 0 4 -14z" />
    <glyph glyph-name="ucircumflex" unicode="&#xfb;" horiz-adv-x="1083" 
d="M1006 41q0 -9 -9 -14q-25 -10 -63 -27q-10 -6 -31 -20q-6 -7 -18 -7q2 0 -27 15q-53 33 -86 149q-5 17 -20 4q-33 -27 -185 -116q-62 -37 -207 -37q-82 0 -133 71q-47 67 -47 156v395q0 252 -41 252h-119q-14 0 -14 10v33q0 10 8 10h123q5 0 49.5 3.5t53.5 3.5q73 8 65 8
q17 0 17 -27q0 -2 -2.5 -305.5t-2.5 -329.5q0 -94 42 -130q36 -32 122 -32t271 82q10 0 10 17v514q0 139 -41 139h-119q-12 0 -12 10v33q0 10 8 10h129q61 0 104 7q58 8 60 8q14 0 14 -29q0 -4 -2 -314.5t-2 -326.5q0 -141 92 -199q13 -7 13 -16zM749 1015q-19 -11 -47 7
q-61 39 -201 132q-72 -52 -194 -132q-28 -16 -48 -7q-6 6 17 33q55 72 139 174q10 13 17 13q20 2 61 2q61 0 71.5 -2t19.5 -9q66 -66 149 -178q21 -28 16 -33z" />
    <glyph glyph-name="udieresis" unicode="&#xfc;" horiz-adv-x="1083" 
d="M1006 41q0 -9 -9 -14q-25 -10 -63 -27q-10 -6 -31 -20q-6 -7 -18 -7q2 0 -27 15q-53 33 -86 149q-5 17 -20 4q-33 -27 -185 -116q-62 -37 -207 -37q-82 0 -133 71q-47 67 -47 156v395q0 252 -41 252h-119q-14 0 -14 10v33q0 10 8 10h123q5 0 49.5 3.5t53.5 3.5q73 8 65 8
q17 0 17 -27q0 -2 -2.5 -305.5t-2.5 -329.5q0 -94 42 -130q36 -32 122 -32t271 82q10 0 10 17v514q0 139 -41 139h-119q-12 0 -12 10v33q0 10 8 10h129q61 0 104 7q58 8 60 8q14 0 14 -29q0 -4 -2 -314.5t-2 -326.5q0 -141 92 -199q13 -7 13 -16zM748 1159q0 -47 -43 -83
q-36 -32 -70 -32q-59 0 -59 60q0 33 30 69q36 44 89 44t53 -58zM443 1159q0 -47 -43 -83q-37 -32 -70 -32q-59 0 -59 60q0 33 30 69q36 44 89 44t53 -58z" />
    <glyph glyph-name="yacute" unicode="&#xfd;" horiz-adv-x="958" 
d="M948 872q0 -8 -3 -10t-7 -2h-55q-18 0 -27 -18q-28 -45 -133 -344q-34 -101 -227 -572q-113 -262 -193 -400q-7 -13 -26 -18q-6 -2 -117 -17q-92 -12 -90 -12q-19 0 -19 14q0 11 19 19q98 41 196 172q148 194 187 296q5 13 -7 36q-85 170 -208 486q-44 110 -121 284
q-25 74 -58 74h-36q-13 0 -13 12v31q0 5 2 7.5t11 2.5h383q10 0 10 -10v-35q0 -8 -10 -8h-123q-21 0 -21 -22q0 -7 10.5 -39.5t112.5 -274.5q65 -165 139 -346q9 -17 19 2q66 137 121 314q69 227 69 288q0 78 -37 78h-94q-14 0 -14 8v35q0 10 10 10h338q9 0 10.5 -3t1.5 -7
v-31zM729 1212q-10 -10 -39 -27q-139 -79 -318 -167q-43 -26 -51 -7q-10 23 15 39l221 172q15 13 31 11q49 -7 137 -7q18 0 4 -14z" />
    <glyph glyph-name="thorn" unicode="&#xfe;" horiz-adv-x="1108" 
d="M1042 455q0 -209 -131 -338q-61 -61 -121 -86q-86 -37 -225 -37q-108 0 -229 67q-21 12 -21 -8v-276q0 -67 10 -138q13 -105 40 -105h198q8 0 8 -9v-32q0 -13 -10 -13h-534q-13 0 -13 9v34q0 11 13 11h135q16 0 16 16q0 8 2 861.5t2 872.5q0 207 -32 207h-125
q-13 0 -13 10v33q0 10 8 10h97q102 0 137 6q58 11 57 11q11 0 11 -25q0 -3 -3.5 -372.5t-3.5 -397.5q0 -18 13 -6q76 70 166 123q77 45 176 45q136 0 243 -109q129 -130 129 -364zM913 412q0 71 -34 155q-32 81 -74 123q-94 94 -242 94q-100 0 -160 -24q-61 -27 -81 -53
q-7 -8 -7 -25v-549q0 -24 13 -31q93 -53 270 -53q170 0 263 140q52 77 52 223z" />
    <glyph glyph-name="ydieresis" unicode="&#xff;" horiz-adv-x="958" 
d="M948 872q0 -8 -3 -10t-7 -2h-55q-18 0 -27 -18q-28 -45 -133 -344q-34 -101 -227 -572q-113 -262 -193 -400q-7 -13 -26 -18q-6 -2 -117 -17q-92 -12 -90 -12q-19 0 -19 14q0 11 19 19q98 41 196 172q148 194 187 296q5 13 -7 36q-85 170 -208 486q-44 110 -121 284
q-25 74 -58 74h-36q-13 0 -13 12v31q0 5 2 7.5t11 2.5h383q10 0 10 -10v-35q0 -8 -10 -8h-123q-21 0 -21 -22q0 -7 10.5 -39.5t112.5 -274.5q65 -165 139 -346q9 -17 19 2q66 137 121 314q69 227 69 288q0 78 -37 78h-94q-14 0 -14 8v35q0 10 10 10h338q9 0 10.5 -3t1.5 -7
v-31zM748 1124q0 -47 -43 -83q-36 -32 -70 -32q-59 0 -59 60q0 33 30 69q36 44 89 44t53 -58zM443 1124q0 -47 -43 -83q-37 -32 -70 -32q-59 0 -59 60q0 33 30 69q36 44 89 44t53 -58z" />
    <glyph glyph-name="dotlessi" unicode="&#x131;" horiz-adv-x="555" 
d="M530 10q0 -10 -12 -10h-475q-10 0 -10 12v31q0 14 8 14h145q19 0 19 21q0 6 1 242.5t1 261.5q0 156 -3 187q-11 93 -54 93h-99q-16 0 -16 10v35q0 13 10 13h59q93 0 179 8q64 6 59 6q23 0 23 -31q0 -3 -7.5 -297.5t-7.5 -308.5q0 -240 49 -240h121q10 0 10 -10v-37z" />
    <glyph glyph-name="Lslash" unicode="&#x141;" horiz-adv-x="1124" 
d="M1126 141q0 -9 -32 -63q-8 -21 -35 -66q-8 -12 -17 -12h-952q-12 0 -12 10v33q0 10 10 10h150q18 0 18 21q0 9 -3 121t1 496t4 403q0 213 -39 213h-113q-14 0 -14 12v29q0 12 12 12h541q10 0 10 -8v-35q0 -10 -8 -10h-201q-15 0 -18 -14t-10 -488q-6 -446 -6 -508
q0 -231 53 -231q323 0 371 4q156 13 251 71q24 15 29 15q10 -7 10 -15zM692 780q10 -18 10 -28q0 -18 -36 -27q-215 -52 -539 -133q-37 -10 -53 18q-8 14 -8 22q0 13 30 21q27 2 535 146q45 13 61 -19z" />
    <glyph glyph-name="lslash" unicode="&#x142;" horiz-adv-x="551" 
d="M535 8q0 -8 -11 -8h-497q-13 0 -13 10v35q0 12 11 12h163q21 0 21 23v1110q0 222 -39 222h-123q-12 0 -12 12v33q0 14 8 14h78q70 0 147.5 20.5t67.5 20.5q18 0 18 -29q0 -3 -6 -593t-6 -611q0 -222 37 -222h145q11 0 11 -10v-39zM537 772q9 -19 9 -29q0 -17 -36 -26
l-430 -115q-37 -10 -53 19q-9 15 -9 22q0 11 31 21l426 127q45 13 62 -19z" />
    <glyph glyph-name="OE" unicode="&#x152;" horiz-adv-x="1860" 
d="M1794 143q-29 -57 -68 -131q-7 -12 -20 -12q-239 0 -598 -6t-379 -6q-239 0 -360 61q-88 44 -148 113q-74 84 -106 185q-39 121 -39 319q0 135 37 256q44 143 131 241t250 162q107 42 256 45q24 1 459 -5q444 -5 448 -5q17 0 48 2t30 2q12 0 10 -10q-14 -55 -35 -127
q-8 -23 -16 -23l-15 15q-36 36 -116 51q-113 20 -476 24q-12 0 -16 -12t-4 -496q0 -20 16 -20h490q14 0 16.5 15t8 64t6.5 54q0 19 12 19h14q12 0 12 -17q0 -4 -4 -83.5t-4 -94.5t2 -105t2 -96q0 -22 -10 -22h-16q-10 0 -13 14q-3 64 -10 152q-2 20 -18 20q-9 0 -246.5 4
t-243.5 4q-12 0 -12 -18v-377q0 -240 51 -240q469 0 623 72q29 15 45 25q12 3 6 -13zM926 74q0 9 -2 307.5t-2 308.5q0 19 -7 290q-6 278 -8 294q-97 26 -225 26q-153 0 -221 -49q-124 -88 -170 -194q-62 -140 -62 -342q0 -298 111 -469q67 -104 201 -166q105 -49 229 -49
q156 0 156 43z" />
    <glyph glyph-name="oe" unicode="&#x153;" horiz-adv-x="1536" 
d="M1507 135q1 -4 -2 -6q-30 -31 -52 -46q-36 -26 -99 -54q-101 -45 -219 -45q-202 0 -310 139q-16 -20 -110 -84q-91 -51 -211 -51q-136 0 -193 24q-122 54 -183.5 178.5t-61.5 264.5q0 154 67 272q61 106 172 162q86 43 244 43q128 0 203 -47q36 -23 69 -51q22 -19 29 -19
q6 0 14 8q103 101 252 101q72 0 119 -23q35 -17 115 -74q94 -67 127 -139q8 -18 8 -31q0 -11 -19 -18q-38 -15 -223 -49q-210 -39 -280 -39q-6 0 -47.5 -1t-49.5 -1q-12 0 -12 -47q0 -207 152 -338q80 -70 266 -70q94 0 155 21q43 14 68 35q4 2 6 -3q4 -5 6 -12zM1321 670
q0 8 -10 26q-44 76 -107 126q-66 50 -151 50q-64 0 -121 -77q-21 -29 -45 -89q-27 -65 -27 -100q0 -16 12 -16q-9 0 172 14q174 14 261 47q16 7 16 19zM770 201q-43 90 -43 196q0 114 12 183q1 4 17 61q-11 33 -18 46q-10 20 -38 52q-101 121 -264 121q-85 0 -116 -14
q-21 -9 -48 -47q-59 -86 -59 -256q0 -177 63 -324q44 -101 117 -145q64 -39 142 -39q90 0 139 28q63 38 82 87q8 22 14 51z" />
    <glyph glyph-name="Scaron" unicode="&#x160;" horiz-adv-x="1030" 
d="M915 375q0 -166 -106 -273q-113 -112 -328 -112q-252 0 -356 92q-12 11 -12 41q0 7 -1 117t-1 118q0 13 14 13h41q12 0 14 -13t6 -63q6 -108 80 -176q35 -32 100 -54t117 -22q200 0 267 133q30 62 30 154q0 82 -57 141q-64 66 -223 123q-180 64 -256 129
q-101 85 -101 266q0 170 138 287q105 90 276 90q113 0 210 -38q62 -24 91 -50q14 -10 16 -27q11 -76 11 -204q0 -21 -6 -21h-48q-7 0 -10 12q-6 29 -14 76q-15 69 -70 100q-101 58 -233 58q-119 0 -176 -51q-60 -53 -60 -187q0 -82 56 -143q27 -30 105 -64q65 -26 130 -53
q129 -56 152 -69q75 -41 127 -99q77 -87 77 -231zM787 1709q6 -5 -17 -32q-55 -72 -139 -174q-9 -13 -17 -13q-20 -2 -61 -2q-61 0 -71.5 2t-18.5 9q-66 66 -150 178q-21 28 -16 32q20 12 47 -6q61 -39 201 -132q72 52 195 132q28 16 47 6z" />
    <glyph glyph-name="scaron" unicode="&#x161;" horiz-adv-x="811" 
d="M739 258q0 -109 -61 -182q-76 -90 -254 -90q-190 0 -322 104q-14 11 -14 43q-4 41 -4 176q0 19 16 19q17 0 21 -15q0 -4 8 -28q8 -28 10 -39q25 -87 94 -172q19 -22 33 -25q48 -8 156 -8q107 0 170 55q49 43 49 119q0 45 -37 78q-51 45 -133 63q-9 3 -58 20.5t-59 20.5
q-116 51 -167 101q-72 70 -72 180q0 89 63 156q80 84 232 84q186 0 276 -91q8 -8 8 -24v-144q0 -22 -10 -22q-12 0 -18 12q-38 83 -84 180q-9 17 -23 19q-44 12 -137 12q-88 0 -143 -33q-64 -37 -64 -110q0 -118 164 -166q50 -15 147 -47q92 -31 146 -80q67 -62 67 -166z
M667 1242q6 -5 -17 -32q-55 -72 -139 -174q-9 -13 -17 -13q-20 -2 -61 -2q-61 0 -71.5 2t-18.5 9q-66 66 -150 178q-21 28 -16 32q20 12 47 -6q61 -39 201 -132q72 52 195 132q28 16 47 6z" />
    <glyph glyph-name="Ydieresis" unicode="&#x178;" horiz-adv-x="1212" 
d="M1198 1315q0 -8 -6 -8h-70q-26 0 -55 -47q-71 -117 -172 -285q-97 -153 -201 -322q-10 -22 -10 -32q0 -4 -1 -185t-1 -196q0 -187 39 -187h172q5 0 7.5 -2t2.5 -10v-33q0 -8 -8 -8h-539q-14 0 -14 12v27q0 14 12 14h164q17 0 17 25l-3 534q0 30 -10 43q-17 23 -184 301
q-72 122 -197 308q-35 43 -82 43h-36q-9 0 -11 3t-2 7v29q0 14 13 14h448q14 0 14 -12v-31q0 -10 -8 -10h-115q-26 0 -26 -21q0 -15 12 -41q62 -104 148 -250q120 -214 157 -266q12 -17 21 -6q35 45 119.5 188t111.5 203q45 98 45 168q0 25 -26 25h-88q-9 0 -9 8v35
q0 10 9 10h354q8 0 8 -8v-37zM897 1611q0 -47 -43 -83q-36 -32 -70 -32q-59 0 -59 60q0 33 30 69q36 44 89 44t53 -58zM592 1611q0 -47 -43 -83q-37 -32 -70 -32q-59 0 -59 60q0 33 30 69q36 44 89 44t53 -58z" />
    <glyph glyph-name="Zcaron" unicode="&#x17d;" horiz-adv-x="1350" 
d="M1266 274q0 -10 -52 -163q-14 -43 -36 -107q-9 -22 -31 -27q-33 -4 -86 -4q-10 0 -338 17q-205 10 -379 10q-90 0 -176 -6q-26 -2 -48 -5q-18 -3 -22 -3q-18 0 -18 14q2 20 22 43q47 75 332 438q209 249 455 543q100 122 119 160q6 12 1 15t-34 1q-139 -8 -430 -8
q-59 0 -149 2t-101 2q-114 0 -137 -12q-35 -19 -29 -19q-18 0 -18 15q0 5 43 86q25 47 41 84q9 12 24 10q213 -27 531 -27q15 0 157 2t150 2q27 0 88 6.5t59 6.5q21 0 21 -17q0 -11 -15 -28q-242 -293 -503 -607q-48 -51 -187 -224q-176 -218 -250 -333q-10 -16 -7 -21
q3 -4 18 1q79 18 286 18q111 0 283 -10t170 -10q138 0 190 114q22 48 29 48h21q6 -2 6 -7zM913 1711q6 -5 -17 -32q-55 -72 -139 -174q-9 -13 -17 -13q-20 -2 -61 -2q-61 0 -71.5 2t-18.5 9q-66 66 -150 178q-21 28 -16 32q20 12 47 -6q61 -39 201 -132q72 52 195 132
q28 16 47 6z" />
    <glyph glyph-name="zcaron" unicode="&#x17e;" horiz-adv-x="995" 
d="M952 139q0 -4 -12 -43t-12 -43q-4 -20 -10 -37q-9 -16 -23 -16h-834q-24 0 -24 20q0 13 18 35q48 59 324 312q230 210 326 319q59 67 59 88q0 17 -33 17h-323q-123 0 -170 -9q-47 -2 -119 -20q-22 -17 -31 -17q-10 0 -10 13q0 -15 14 76q8 50 17 75q2 13 22 13
q3 0 32.5 -2t36.5 -2t313.5 -7.5t320.5 -7.5t52.5 3t39.5 3q16 0 16 -14q0 -10 -14 -31q-54 -61 -131 -149q-145 -169 -355 -359q-117 -105 -182 -178q-29 -32 -29 -41q0 -18 33 -18h293q186 0 293 12q31 4 60 13.5t32 9.5q10 0 10 -15zM796 1242q6 -5 -17 -32
q-55 -72 -139 -174q-9 -13 -17 -13q-20 -2 -61 -2q-61 0 -71.5 2t-18.5 9q-66 66 -150 178q-21 28 -16 32q20 12 47 -6q61 -39 201 -132q72 52 195 132q28 16 47 6z" />
    <glyph glyph-name="florin" unicode="&#x192;" horiz-adv-x="592" 
d="M662 1437q0 -53 -64 -53q-70 0 -139 69q-16 10 -25 10q-38 0 -72 -38q-53 -63 -53 -197q0 10 -1 -94t-1 -204q0 -21 12 -21q21 0 218 2q10 0 10 -10v-45q0 -12 -10 -12q-7 0 -107 2t-104 2q-17 0 -17 -14q0 -1 3 -404.5t3 -472.5q0 -148 -112 -242q-87 -71 -226 -71
q-59 0 -106 32q-41 28 -41 54q0 53 64 53q69 0 139 -70q15 -10 24 -10q39 0 72 39q53 62 53 197q0 59 -3 459.5t-3 424t-12 23.5t-82 -2q-6 0 -8 2t-2 12v35q0 16 12 16q4 0 37 1t44 1t11 15v283q0 149 113 242q86 72 225 72q59 0 106 -32q42 -29 42 -54z" />
    <glyph glyph-name="circumflex" unicode="&#x2c6;" horiz-adv-x="545" 
d="M520 1044q-19 -11 -47 7q-61 39 -201 132q-72 -52 -194 -132q-28 -16 -48 -7q-6 6 17 33q55 72 139 174q10 13 17 13q20 2 61 2q61 0 71.5 -2t19.5 -9q66 -66 149 -178q21 -28 16 -33z" />
    <glyph glyph-name="caron" unicode="&#x2c7;" horiz-adv-x="545" 
d="M513 1211q6 -5 -17 -32q-55 -72 -139 -174q-9 -13 -17 -13q-20 -2 -61 -2q-61 0 -71.5 2t-18.5 9q-66 66 -150 178q-21 28 -16 32q20 12 47 -6q61 -39 201 -132q72 52 195 132q28 16 47 6z" />
    <glyph glyph-name="breve" unicode="&#x2d8;" horiz-adv-x="545" 
d="M461 1110q-70 -70 -189 -70q-118 0 -192 74q-25 25 4 53q19 19 33 11q84 -52 157 -52q91 0 152 50q15 12 35 -7q30 -28 0 -59z" />
    <glyph glyph-name="dotaccent" unicode="&#x2d9;" horiz-adv-x="545" 
d="M360 1128q0 -36 -27.5 -61t-64.5 -25q-92 0 -92 86q0 97 111 97q73 0 73 -97z" />
    <glyph glyph-name="ring" unicode="&#x2da;" horiz-adv-x="545" 
d="M455 1130q0 -75 -53.5 -127.5t-129.5 -52.5q-75 0 -128.5 52.5t-53.5 127.5q0 76 53.5 129.5t128.5 53.5q76 0 129.5 -53.5t53.5 -129.5zM397 1130q0 51 -37 88t-88 37q-50 0 -87.5 -37t-37.5 -88q0 -50 37.5 -86t87.5 -36q51 0 88 36t37 86z" />
    <glyph glyph-name="ogonek" unicode="&#x2db;" horiz-adv-x="545" 
d="M428 -176q16 -16 -4 -33q-75 -61 -170 -61q-70 0 -109 46q-32 39 -32 93q0 53 38 92q31 32 68 39h45q-47 -31 -47 -121q0 -29 21 -53q22 -27 57 -27q68 0 106 27q15 10 27 -2z" />
    <glyph glyph-name="tilde" unicode="&#x2dc;" horiz-adv-x="545" 
d="M528 1161q10 -23 -6 -45q-49 -69 -157 -69q-57 0 -113 28q-96 49 -137 49q-34 0 -64 -32q-20 -23 -35 16q-5 14 11 37q49 69 157 69q48 0 111 -28q108 -49 139 -49q29 0 62 32q20 21 32 -8z" />
    <glyph glyph-name="hungarumlaut" unicode="&#x2dd;" horiz-adv-x="545" 
d="M512 1202q-9 -11 -27 -26q-65 -56 -213 -172q-21 -16 -34 -7q-15 11 10 39q50 61 145 174q11 13 23 11q22 -4 90 -4q4 0 7 -6q2 -6 -1 -9zM293 1198q-9 -12 -27 -27q-65 -55 -213 -172q-21 -16 -35 -6q-14 11 11 39q50 61 145 174q11 13 23 11q22 -5 90 -5q4 0 7 -5
q2 -6 -1 -9z" />
    <glyph glyph-name="Delta" unicode="&#x394;" horiz-adv-x="1341" 
d="M1286 10q0 -5 -6 -10l-309 -12l-702 20l-200 -8q-10 0 -10 10v33q0 9 8 10l37 5q25 4 43 57q46 131 240 575q119 283 248 588q17 34 41 98q11 31 22 35q28 8 72 25q7 3 16 -11q9 -13 -8 -30q-30 -31 -30 -60q0 -16 14 -75q22 -93 100 -285q23 -57 121 -350
q112 -337 170 -459q17 -38 35 -75q16 -30 41 -33l49 -5q8 -1 8 -14v-29zM961 145q-68 210 -150 455q-74 252 -157 520q-9 29 -14 29t-17 -29q-156 -370 -187 -459q-11 -30 -99 -261q-91 -237 -96 -244q-12 -35 7 -36q267 -19 350 -19q207 0 356 19q15 1 7 25z" />
    <glyph glyph-name="Delta" unicode="&#x2206;" horiz-adv-x="1341" 
d="M1286 10q0 -5 -6 -10l-309 -12l-702 20l-200 -8q-10 0 -10 10v33q0 9 8 10l37 5q25 4 43 57q46 131 240 575q119 283 248 588q17 34 41 98q11 31 22 35q28 8 72 25q7 3 16 -11q9 -13 -8 -30q-30 -31 -30 -60q0 -16 14 -75q22 -93 100 -285q23 -57 121 -350
q112 -337 170 -459q17 -38 35 -75q16 -30 41 -33l49 -5q8 -1 8 -14v-29zM961 145q-68 210 -150 455q-74 252 -157 520q-9 29 -14 29t-17 -29q-156 -370 -187 -459q-11 -30 -99 -261q-91 -237 -96 -244q-12 -35 7 -36q267 -19 350 -19q207 0 356 19q15 1 7 25z" />
    <glyph glyph-name="Omega" unicode="&#x3a9;" horiz-adv-x="1479" 
d="M1357 858q0 -245 -142 -383q-155 -151 -359 -180q-1 -40 -2 -168q172 1 232 12q99 19 122 79q18 48 25 48h27q5 -1 5 -5q0 -16 -46 -148q-12 -36 -33 -91q-8 -18 -27 -22q-39 -5 -87 -5t-145 6.5t-143 6.5q-6 1 -6 15q0 11 14 316l147 34q118 64 190 197q53 98 53 250
q0 105 -29 184q-34 92 -105 160q-65 61 -156 93q-104 36 -208 36q-135 0 -195 -36q-109 -65 -151 -143q-54 -103 -54 -251q0 -218 98 -344q34 -44 58 -66q52 -50 115 -74l104 -40l14 -316q0 -15 -5 -15q-51 0 -150 -7t-148 -7q-53 0 -97 6q-20 4 -28 22q-3 35 -14 85
q-4 10 -14.5 70.5t-10.5 70.5q0 5 6 5h26q3 0 26 -44q49 -97 213 -97q60 0 124 15l-13 180q-105 7 -212 54q-85 36 -123 72q-136 129 -136 391q0 106 34 199q41 111 122.5 187t233.5 126q108 35 239 35q201 0 307 -40q118 -44 185 -121q119 -134 119 -352z" />
    <glyph glyph-name="Omega" unicode="&#x2126;" horiz-adv-x="1479" 
d="M1357 858q0 -245 -142 -383q-155 -151 -359 -180q-1 -40 -2 -168q172 1 232 12q99 19 122 79q18 48 25 48h27q5 -1 5 -5q0 -16 -46 -148q-12 -36 -33 -91q-8 -18 -27 -22q-39 -5 -87 -5t-145 6.5t-143 6.5q-6 1 -6 15q0 11 14 316l147 34q118 64 190 197q53 98 53 250
q0 105 -29 184q-34 92 -105 160q-65 61 -156 93q-104 36 -208 36q-135 0 -195 -36q-109 -65 -151 -143q-54 -103 -54 -251q0 -218 98 -344q34 -44 58 -66q52 -50 115 -74l104 -40l14 -316q0 -15 -5 -15q-51 0 -150 -7t-148 -7q-53 0 -97 6q-20 4 -28 22q-3 35 -14 85
q-4 10 -14.5 70.5t-10.5 70.5q0 5 6 5h26q3 0 26 -44q49 -97 213 -97q60 0 124 15l-13 180q-105 7 -212 54q-85 36 -123 72q-136 129 -136 391q0 106 34 199q41 111 122.5 187t233.5 126q108 35 239 35q201 0 307 -40q118 -44 185 -121q119 -134 119 -352z" />
    <glyph glyph-name="pi" unicode="&#x3c0;" horiz-adv-x="1007" 
d="M945 128q0 -14 -5 -22q-43 -55 -67.5 -74t-47.5 -38q-24 -15 -73 -15q-84 0 -140 60.5t-56 155.5q0 56 8 442q0 21 -5 166l-25 24h-210l25 -768q1 -40 -13.5 -51.5t-53.5 -13.5q-71 -3 -91 23q-9 10 -6 26l4 776h-114q-13 0 -18 15q-15 37 -15 57q-7 24 15 25
q309 7 404 7q180 -1 420 -5q20 -2 14 -21q0 -20 -14 -57q-5 -15 -18 -15q-9 0 -76.5 1t-73.5 1q-12 0 -12 -10v-557q0 -73 17.5 -117.5t94.5 -44.5q42 0 99 30q25 18 27 18q6 0 6 -18z" />
    <glyph glyph-name="endash" unicode="&#x2013;" horiz-adv-x="1024" 
d="M965 573q0 -12 -11 -12h-872q-10 0 -10 14v68q0 16 12 16l870 3q11 0 11 -11v-78z" />
    <glyph glyph-name="emdash" unicode="&#x2014;" horiz-adv-x="2048" 
d="M1980 573q0 -12 -10 -12h-1888q-10 0 -10 14v68q0 16 12 16l1886 3q10 0 10 -11v-78z" />
    <glyph glyph-name="quoteleft" unicode="&#x2018;" horiz-adv-x="389" 
d="M356 938q0 -61 -110 -61q-70 0 -113 43q-47 46 -47 129q0 137 129 233q25 18 43 18q12 0 12 -16q0 -4 -24 -37q-60 -59 -60 -147q0 -42 17 -72q5 -9 15 -11q7 -2 20 -1q19 2 24 2q94 0 94 -80z" />
    <glyph glyph-name="quoteright" unicode="&#x2019;" horiz-adv-x="389" 
d="M295 1120q0 -144 -127 -237q-28 -21 -41 -21q-14 0 -14 17q0 12 24 36q56 56 56 148q0 35 -13 57q-15 29 -53 29q-94 0 -94 78q0 59 104 59q69 0 113.5 -45t44.5 -121z" />
    <glyph glyph-name="quotesinglbase" unicode="&#x201a;" horiz-adv-x="389" 
d="M360 43q0 -144 -127 -238q-27 -20 -40 -20q-15 0 -15 16q0 13 25 37q55 56 55 148q0 34 -12 57q-16 29 -53 29q-95 0 -95 78q0 59 105 59q69 0 113 -45.5t44 -120.5z" />
    <glyph glyph-name="quotedblleft" unicode="&#x201c;" horiz-adv-x="707" 
d="M674 938q0 -61 -111 -61q-69 0 -113 43q-47 46 -47 129q0 137 129 233q25 18 43 18q13 0 13 -16q0 -4 -25 -37q-59 -59 -59 -147q0 -42 16 -72q5 -9 15 -11q7 -2 21 -1q19 2 24 2q94 0 94 -80zM342 938q0 -61 -111 -61q-69 0 -112 43q-47 46 -47 129q0 137 129 233
q24 18 43 18q12 0 12 -16q0 -4 -25 -37q-59 -59 -59 -147q0 -42 16 -72q5 -9 15 -11q7 -2 21 -1q19 2 24 2q94 0 94 -80z" />
    <glyph glyph-name="quotedblright" unicode="&#x201d;" horiz-adv-x="707" 
d="M618 1120q0 -144 -126 -237q-28 -21 -41 -21q-15 0 -15 17q0 12 25 36q55 56 55 148q0 35 -12 57q-16 29 -53 29q-95 0 -95 78q0 59 105 59q69 0 113 -45t44 -121zM295 1120q0 -144 -127 -237q-28 -21 -41 -21q-14 0 -14 17q0 12 24 36q56 56 56 148q0 35 -13 57
q-15 29 -53 29q-94 0 -94 78q0 59 104 59q69 0 113.5 -45t44.5 -121z" />
    <glyph glyph-name="quotedblbase" unicode="&#x201e;" horiz-adv-x="707" 
d="M635 43q0 -144 -127 -238q-28 -20 -41 -20q-14 0 -14 16q0 13 24 37q55 56 55 148q0 34 -12 57q-15 29 -53 29q-94 0 -94 78q0 59 104 59q69 0 113.5 -45.5t44.5 -120.5zM311 43q0 -144 -127 -238q-28 -20 -41 -20q-14 0 -14 16q0 13 25 37q55 56 55 148q0 34 -12 57
q-16 29 -54 29q-94 0 -94 78q0 59 105 59q68 0 112.5 -45.5t44.5 -120.5z" />
    <glyph glyph-name="dagger" unicode="&#x2020;" horiz-adv-x="715" 
d="M688 971q5 -67 -14 -117l-2 -4q-8 -21 -31 -14q-16 4 -119.5 10t-120.5 4q-30 -3 -30 -29q0 -6 11 -270.5t11 -290.5q0 -42 -23 -268q-24 -236 -34 -254q-13 -25 -24 -25t-19 27t-17 246q-8 192 -8 278q0 21 60 555q3 27 -33 27q-195 0 -227 -17q-26 -12 -35 27
q-15 62 6 109q5 11 18 9q15 -6 32.5 -11.5t105.5 -13t102 -5.5q35 4 35 19q0 10 -21 102q-23 105 -30 168q-14 107 -11 117q2 4 95 4q65 0 71 -2q29 -9 19 -37q-9 -25 -43 -152q-37 -139 -39 -172q-3 -31 0 -35q3 -6 28 -4q104 7 238 23q45 12 39 12q9 0 10 -16z" />
    <glyph glyph-name="daggerdbl" unicode="&#x2021;" horiz-adv-x="783" 
d="M741 971q5 -67 -14 -117l-1 -4q-9 -21 -32 -14q-16 4 -119.5 10t-119.5 4q-31 -3 -31 -29q0 -5 15.5 -95.5t15.5 -119.5l-25 -156l-27 -108q-3 -27 33 -27q195 0 228 17q25 13 34 -27q15 -62 -6 -108q-5 -12 -17 -9q-16 5 -33 10.5t-105.5 13t-102.5 5.5q-35 -4 -35 -18
q0 -11 21 -103q23 -105 31 -168q13 -107 10 -116q-2 -5 -94 -5q-66 0 -72 3q-29 9 -19 36l43 152q37 140 39.5 171.5t0.5 35.5q-4 6 -29 4q-104 -7 -238 -23q-45 -12 -39 -12q-9 0 -10 16q-5 67 14 117l2 4q8 21 31 15q16 -5 121 -11q102 -5 119 -4q30 3 30 29q0 6 -15 126
t-15 144q0 28 51 209q3 27 -33 27q-194 0 -227 -17q-26 -12 -35 27q-14 62 6 109q5 11 18 9q16 -6 31 -11q19 -6 109 -13q86 -8 100 -6q35 4 35 19q0 10 -20 102q-23 105 -31 168q-13 107 -10 117q1 4 94 4q65 0 71 -2q29 -9 19 -37q-79 -291 -82 -324q-3 -31 0 -35
q3 -6 29 -4q103 7 237 23q46 12 39 12q9 0 10 -16z" />
    <glyph glyph-name="bullet" unicode="&#x2022;" horiz-adv-x="1356" 
d="M1225 578q0 -226 -159.5 -385.5t-385.5 -159.5t-385.5 159.5t-159.5 385.5q0 225 159.5 384.5t385.5 159.5t385.5 -159.5t159.5 -384.5z" />
    <glyph glyph-name="ellipsis" unicode="&#x2026;" horiz-adv-x="1204" 
d="M1083 72q0 -36 -27.5 -61t-64.5 -25q-92 0 -92 86q0 96 111 96q73 0 73 -96zM694 72q0 -36 -28 -61t-64 -25q-92 0 -92 86q0 96 111 96q73 0 73 -96zM305 72q0 -36 -28 -61t-64 -25q-92 0 -92 86q0 96 110 96q74 0 74 -96z" />
    <glyph glyph-name="perthousand" unicode="&#x2030;" horiz-adv-x="2331" 
d="M2279 358q0 -103 -32 -186q-37 -93 -138 -154q-67 -41 -157 -41q-107 0 -144 21q-91 39 -137.5 138.5t-46.5 215.5q0 129 48.5 216.5t129.5 129.5q66 35 185 35q87 0 151 -37q76 -53 108.5 -142t32.5 -196zM2173 319q0 162 -73 259.5t-199 97.5q-65 0 -87 -11
q-16 -7 -36 -38q-43 -67 -43 -205q0 -145 47 -258q33 -80 88 -117q46 -31 104 -31q68 0 109.5 25.5t68.5 103.5q21 59 21 174zM1561 358q0 -103 -33 -186q-37 -93 -137 -154q-68 -41 -158 -41q-107 0 -143 21q-92 39 -138.5 138.5t-46.5 215.5q0 129 48.5 216.5t129.5 129.5
q66 35 185 35q87 0 151 -37q77 -53 109.5 -142t32.5 -196zM1454 319q0 162 -73 259.5t-199 97.5q-65 0 -87 -11q-16 -7 -36 -38q-43 -67 -43 -205q0 -145 47 -258q33 -80 88 -117q46 -31 104 -31q68 0 109.5 25.5t69.5 103.5q20 59 20 174zM1071 1356q4 -4 -6 -37
q-25 -82 -246.5 -743t-253.5 -750q-8 -22 -20 -35q-17 0 -27 4q-16 11 -16 15q-10 9 6 36q237 742 500 1493q7 22 20 35q17 0 27 -4q16 -11 16 -14zM719 915q0 -103 -38 -190.5t-132 -149.5q-68 -40 -158 -40q-106 0 -143 20q-92 39 -139 141q-46 97 -46 213q0 129 49 216.5
t130 129.5q66 35 184 35q87 0 152 -37q76 -53 108.5 -142t32.5 -196zM612 877q0 161 -73 258.5t-199 97.5q-64 0 -87 -11q-16 -7 -36 -38q-43 -67 -43 -205q0 -145 47 -258q33 -80 83.5 -114t109.5 -34q67 0 104 23q47 29 74 106q20 59 20 175z" />
    <glyph glyph-name="guilsinglleft" unicode="&#x2039;" horiz-adv-x="578" 
d="M473 223q-3 -8 -12 -24q-12 -9 -21 -11l-32 19q-56 43 -269 223q-25 22 -26 33l-4 49q-2 16 18 33q34 43 128 131q101 93 138 137q18 27 31 27q8 -3 25 -13q8 -12 10 -20q0 -1 -19 -33q-100 -129 -204 -268l-13 -17l19 -24q56 -67 204 -211q27 -18 27 -31z" />
    <glyph glyph-name="guilsinglright" unicode="&#x203a;" horiz-adv-x="578" 
d="M469 512l-4 -49q-1 -11 -27 -33q-88 -76 -268 -223q-32 -19 -33 -19q-7 4 -20 11q-11 12 -13 24q0 13 27 31q53 44 109 108q71 79 96 103l18 24l-12 17q-104 139 -205 268q-18 32 -18 33q3 7 10 20q12 11 25 13q13 0 30 -27q38 -44 138 -137q95 -88 129 -131
q19 -17 18 -33z" />
    <glyph glyph-name="fraction" unicode="&#x2044;" horiz-adv-x="322" 
d="M644 1331q3 -5 -16 -33q-55 -79 -454 -639q-408 -573 -461 -643q-14 -19 -29 -27q-31 6 -36 30q-6 12 16 34q444 639 915 1281q14 19 30 28q26 -8 35 -31z" />
    <glyph glyph-name="fraction" unicode="&#x2215;" horiz-adv-x="322" 
d="M644 1331q3 -5 -16 -33q-55 -79 -454 -639q-408 -573 -461 -643q-14 -19 -29 -27q-31 6 -36 30q-6 12 16 34q444 639 915 1281q14 19 30 28q26 -8 35 -31z" />
    <glyph glyph-name="Euro" unicode="&#x20ac;" horiz-adv-x="1498" 
d="M1423 197q5 -9 -2 -17q-75 -81 -248 -143q-136 -49 -342 -49q-175 0 -277 35q-105 36 -204 133q-105 101 -144 283l-75 -3h-45q-11 3 0 33q6 15 10 19.5t17 5.5l83 2q-10 69 -10 145v23l-69 -2h-31q-11 3 0 32q6 15 10 19.5t17 5.5l77 2q13 134 90 283q76 146 231 247
q202 131 519 131q119 0 217 -10q115 -12 145 -29q6 -2 6 -10q-3 -20 -10 -84q-5 -52 -10 -96q-2 -12 -8 -12q-9 0 -10 5t-13 34q-23 38 -82 67q-106 53 -313 53q-266 0 -424 -163q-160 -167 -177 -410l768 23q19 1 26 -2q9 -2 0 -28q-10 -21 -26 -23q-7 -2 -769 -28
q0 -87 18 -167l751 23q20 0 26 -2q12 -4 0 -29q-9 -20 -26 -22q-6 -2 -736 -27q48 -150 155 -248q95 -87 192 -118q87 -28 234 -28q109 0 211 47.5t152 124.5q28 45 34 84q0 17 6 17q4 0 7 -9q7 -33 22 -63q10 -23 27 -55z" />
    <glyph glyph-name="trademark" unicode="&#x2122;" horiz-adv-x="1524" 
d="M1479 692q0 -8 -6 -8h-261q-8 0 -8 8v37q0 2 6 2h54q12 0 12 12v236q0 133 -4 203q-1 22 -12 8q-96 -204 -183 -402q-40 -92 -45 -110q-2 -8 -8 -8q-8 0 -10 8q-69 142 -142 295q-55 123 -114 235q-9 18 -13 -2q0 -1 -1 -124t-1 -171v-112q0 -68 23 -68h59q6 0 6 -4v-35
q0 -8 -4 -8h-190q-6 0 -6 4v39q0 4 4 4h53q12 0 12 23q0 30 4.5 148.5t4.5 119.5q0 -2 4 76t4 133q0 52 -51 78q-7 5 -45 8q-3 1 -5 4v39q0 4 5 4h133q9 0 12 -4q46 -93 100 -203q74 -160 160 -338q10 -10 14 -4q61 119 129 250q3 8 64 148t63 145q7 6 17 6h139q6 0 6 -4
v-35q0 -8 -4 -8h-49q-16 0 -19 -31q-2 -21 -2 -233q0 -185 2 -228q5 -94 31 -94h58q4 1 4 -2v-37zM612 1360q0 -10 -14 -96q-2 -4 -6 -4q-7 0 -10 8q-12 25 -39 28q-156 19 -162 19q-8 0 -8 -4q-6 -37 -6 -455q0 -125 24 -125h90q2 1 2 -4v-35q0 -8 -2 -8h-317q-4 0 -4 8v37
q0 2 4 2h84q8 0 8 14q0 2 2 43.5t2 53.5q0 8 3 168.5t3 167.5q0 137 -24 137q-100 0 -164 -25q-20 -5 -49 -24q-6 -13 -11 -13q-6 0 -6 4q0 5 2 17q12 43 25 92q2 5 10 8q29 -14 279 -14q10 0 122.5 2t118.5 2q16 0 37 4q6 0 6 -8z" />
    <glyph glyph-name="partialdiff" unicode="&#x2202;" horiz-adv-x="1026" 
d="M950 506q0 -244 -118 -380t-298 -136q-152 0 -253 97q-136 129 -136 378q0 228 118 353q96 102 225 102q59 0 160 -33q70 -22 121 -47q12 -6 16 -1q3 6 -3 30q-22 90 -114 201q-110 132 -225 182q-108 47 -227 47q-67 0 -67 23q0 32 112 32q117 0 192 -25q37 -12 128 -63
q160 -88 264.5 -302t104.5 -458zM812 578q0 98 -6 131q-3 19 -15 35q-69 63 -157 63q-95 0 -143 -12q-55 -14 -85 -39.5t-71 -93.5q-64 -107 -64 -311q0 -165 87 -256q29 -31 99 -31q160 0 254 137q101 148 101 377z" />
    <glyph glyph-name="product" unicode="&#x220f;" horiz-adv-x="1391" 
d="M1361 1346q-9 -63 -31 -146q-4 -14 -12 -14q-10 0 -19 16q-23 45 -80 58q-26 6 -203 15v-2q-12 -369 -12 -935q0 -285 49 -285h142q6 0 6 -8v-35q0 -10 -6 -10h-454q-7 0 -7 10v33q0 6 1.5 8t5.5 2h96q13 0 13 23q0 3 -2.5 108t-2.5 125q0 17 5.5 337.5t5.5 334.5
q0 67 5 301q-91 4 -118 4q-52 0 -244 -1l2 -38l-12 -909q0 -55 8 -159q11 -126 23 -126h113q3 0 3 -8v-35q0 -10 -3 -10h-459q-10 0 -10 10v33q0 10 10 10h152q18 0 18 23q0 3 -2 108t-2 125q0 17 5 337.5t5 334.5q0 243 -22 297q-127 -8 -189 -25q-77 -20 -99 -55
q-11 -18 -20 -18q-13 0 -13 8q0 11 7 26q28 101 45 150q4 13 22 10q20 -3 222 -12q233 -10 366 -10q548 0 606 2q27 1 50.5 4.5t22.5 3.5q13 0 13 -16z" />
    <glyph glyph-name="summation" unicode="&#x2211;" horiz-adv-x="1135" 
d="M1104 173q-33 -72 -77 -161q-8 -12 -21 -12h-916q-10 0 -10 12v31q0 10 8 10h93q15 0 35 21q12 12 588 603l-554 543q0 87 -56 87h-104q-10 0 -10 10v33q0 10 12 10h865q18 0 48.5 2t29.5 2q13 0 10 -10q-14 -55 -35 -127q-8 -23 -16 -23l-14 15q-37 36 -117 51
q-148 27 -457 30q-14 0 -22 -5l518 -510h42l21 -62l-566 -587q32 -77 52 -77q229 0 331 13q166 20 270 84q44 27 46 34q11 0 6 -17z" />
    <glyph glyph-name="radical" unicode="&#x221a;" horiz-adv-x="1427" 
d="M1405 1331q0 -27 -41 -45q-207 -92 -452 -463q-259 -394 -361 -813q-11 -43 -39 -43q-17 0 -25 43q-23 129 -111 283q-83 145 -155 199q-46 34 -83 34q-40 0 -91 -45q-9 -8 -20 8q-9 12 0 25q36 38 114 115q32 29 61 29q18 0 46 -11q64 -26 131 -101q72 -81 108 -177
q39 -103 58 -103q14 0 41 74q147 401 355 701q228 329 398 329q66 0 66 -39z" />
    <glyph glyph-name="infinity" unicode="&#x221e;" horiz-adv-x="700" 
d="M671 596q0 -214 -185 -214q-94 0 -149 135q-67 -125 -165 -125q-73 0 -111 63q-32 53 -32 131q0 93 52.5 146.5t145.5 53.5q101 0 147 -126q61 120 154 120q68 0 108 -61q35 -52 35 -123zM610 535q0 162 -104 162q-68 0 -117 -82q30 -98 52 -129q29 -42 85 -42
q34 0 59 25t25 66zM321 555q-34 91 -51 118q-33 53 -82 53q-98 0 -98 -96q0 -162 100 -162q79 0 131 87z" />
    <glyph glyph-name="integral" unicode="&#x222b;" horiz-adv-x="592" 
d="M613 1382q0 -54 -54 -54q-60 0 -120 70q-13 10 -21 10q-58 0 -95 -85q-22 -51 -32 -672l-9 -649q-11 -158 -102 -241q-79 -72 -205 -72q-54 0 -97 32q-37 29 -37 54q0 53 57 53q64 0 127 -70q14 -10 22 -10q35 0 66 39q48 62 48 197q0 5 15 675q1 239 3 495q1 89 35 148
q21 35 81 91q80 75 192 75q50 0 90 -33q36 -28 36 -53z" />
    <glyph glyph-name="approxequal" unicode="&#x2248;" horiz-adv-x="596" 
d="M582 529q4 -13 -13 -37q-57 -84 -174 -84q-60 0 -123 35q-107 59 -151 59q-29 0 -55 -26q-10 -13 -27 -31q-13 -5 -25 31q-6 12 11 37q54 84 174 84q49 0 120 -35q122 -60 154 -60q31 0 55 27q10 12 29 31q7 4 25 -31zM582 801q4 -13 -13 -37q-57 -84 -174 -84
q-60 0 -123 35q-107 59 -151 59q-29 0 -55 -26q-10 -13 -27 -31q-13 -5 -25 31q-6 12 11 37q54 84 174 84q49 0 120 -35q122 -60 154 -60q31 0 55 27q10 12 29 31q7 4 25 -31z" />
    <glyph glyph-name="notequal" unicode="&#x2260;" horiz-adv-x="700" 
d="M632 709q-10 -21 -27 -23q-4 -1 -244 -12.5t-260 -11.5h-30q-12 3 0 32q5 14 9.5 18.5t16.5 6.5q1 0 252 11q246 10 256 9q19 1 27 -2t0 -28zM632 483q-9 -20 -27 -22q-4 -2 -238.5 -13.5t-250.5 -11.5h-45q-12 4 0 33q5 14 9.5 18.5t16.5 6.5q-1 0 234.5 10t273.5 10
q21 0 27 -2q11 -4 0 -29zM704 1043l-659 -985q-13 -19 -20 -15q-9 6 -26 17q-7 4 2 18l659 986q12 17 18 14q9 -4 26 -13q11 -6 0 -22z" />
    <glyph glyph-name="lessequal" unicode="&#x2264;" horiz-adv-x="987" 
d="M675 320q-2 -9 -12 -25q-12 -8 -20 -10q-8 0 -33 18q-28 21 -209 191q-66 62 -152 137q-26 23 -26 33t12 22q-16 13 -16 27q0 17 18 33q55 70 162 181q122 127 166 179q18 27 31 27q8 -3 24 -13q8 -12 10 -20q0 -1 -18 -33q-19 -24 -168 -231q-36 -47 -98 -129l-13 -17
l17 -12q55 -41 149 -159q100 -126 150 -169q26 -22 26 -30zM788 168q0 -36 -15 -36q-53 0 -302.5 1.5t-293.5 1.5q-21 0 -21 23q0 47 27 47q57 0 303.5 -2t280.5 -2q21 0 21 -33z" />
    <glyph glyph-name="greaterequal" unicode="&#x2265;" horiz-adv-x="987" 
d="M709 712q0 -10 -16 -26q12 -13 12 -23t-26 -33q-135 -128 -361 -327q-32 -19 -33 -19q-10 0 -21 11.5t-11 23.5q0 13 26 31q44 37 152 169q103 125 147 159l17 12l-13 16q-98 134 -266 361q-18 24 -18 32q0 11 11 22t23 11q13 0 31 -26q131 -139 328 -361q18 -16 18 -33z
M788 168q0 -36 -15 -36q-53 0 -302.5 1.5t-293.5 1.5q-21 0 -21 23q0 47 27 47q57 0 303.5 -2t280.5 -2q21 0 21 -33z" />
    <glyph glyph-name="lozenge" unicode="&#x25ca;" horiz-adv-x="826" 
d="M798 574l-347 -508h-72l-349 508l349 508h72zM659 574l-245 371l-245 -371l245 -371z" />
    <glyph glyph-name="fi" unicode="&#xf001;" horiz-adv-x="1143" 
d="M950 1276q0 -53 -47 -94q-41 -35 -78 -35q-65 0 -65 65q0 39 33 79q40 48 98 48q59 0 59 -63zM1116 10q0 -10 -12 -10h-475q-11 0 -11 12v31q0 14 9 14h145q19 0 19 21q0 6 1 242.5t1 261.5q0 156 -4 187q-10 93 -54 93q-69 0 -243 -7t-166 -7q-17 0 -17 -14
q0 -6 2 -283.5t2 -292.5q0 -207 39 -207h180q11 0 11 -8v-33q0 -10 -8 -10h-506q-11 0 -11 6v37q1 5 2.5 7.5t10.5 2.5h137q14 0 14 17q0 6 -3 130t-3 136v485q0 25 -12 25t-82 -2q-6 0 -8 2t-2 12v35q0 16 12 16q4 0 37 1t44 1t11 15v283q0 149 113 242q86 72 225 72
q59 0 106 -32q42 -29 42 -54q0 -53 -64 -53q-70 0 -139 69q-16 10 -25 10q-38 0 -72 -38q-53 -63 -53 -197q0 10 -1 -92t-1 -202q0 -21 12 -21q21 0 371 7q112 1 177.5 7.5t60.5 6.5q22 0 22 -31q0 -3 -7 -297.5t-7 -308.5q0 -240 49 -240h121q10 0 10 -10v-37z" />
    <glyph glyph-name="fi" unicode="&#xfb01;" horiz-adv-x="1143" 
d="M950 1276q0 -53 -47 -94q-41 -35 -78 -35q-65 0 -65 65q0 39 33 79q40 48 98 48q59 0 59 -63zM1116 10q0 -10 -12 -10h-475q-11 0 -11 12v31q0 14 9 14h145q19 0 19 21q0 6 1 242.5t1 261.5q0 156 -4 187q-10 93 -54 93q-69 0 -243 -7t-166 -7q-17 0 -17 -14
q0 -6 2 -283.5t2 -292.5q0 -207 39 -207h180q11 0 11 -8v-33q0 -10 -8 -10h-506q-11 0 -11 6v37q1 5 2.5 7.5t10.5 2.5h137q14 0 14 17q0 6 -3 130t-3 136v485q0 25 -12 25t-82 -2q-6 0 -8 2t-2 12v35q0 16 12 16q4 0 37 1t44 1t11 15v283q0 149 113 242q86 72 225 72
q59 0 106 -32q42 -29 42 -54q0 -53 -64 -53q-70 0 -139 69q-16 10 -25 10q-38 0 -72 -38q-53 -63 -53 -197q0 10 -1 -92t-1 -202q0 -21 12 -21q21 0 371 7q112 1 177.5 7.5t60.5 6.5q22 0 22 -31q0 -3 -7 -297.5t-7 -308.5q0 -240 49 -240h121q10 0 10 -10v-37z" />
    <glyph glyph-name="fl" unicode="&#xf002;" horiz-adv-x="1145" 
d="M1128 8q0 -8 -10 -8h-497q-13 0 -13 10v35q0 12 10 12h164q21 0 21 23v1121q0 222 -39 222h-29q-9 -43 -61 -43q-104 0 -166 84q-10 10 -25 10q-75 0 -121 -53q-53 -63 -53 -197q0 10 -1 -92t-1 -202q0 -21 12 -21q21 0 218 2q10 0 10 -10v-45q0 -12 -10 -12q-7 0 -107 2
t-104 2q-17 0 -17 -14q0 -6 2 -283.5t2 -292.5q0 -207 39 -207h180q11 0 11 -8v-33q0 -10 -8 -10h-506q-11 0 -11 6v37q1 5 2.5 7.5t10.5 2.5h137q14 0 14 17q0 6 -3 130t-3 136v485q0 25 -12 25t-82 -2q-6 0 -8 2t-2 12v35q0 16 12 16q4 0 37 1t44 1t11 15v279
q0 148 113 242q85 72 258 72q71 0 137 -37h31q70 0 147.5 20.5t67.5 20.5q18 0 18 -29q0 -3 -6 -598.5t-6 -616.5q0 -222 37 -222h145q10 0 10 -10v-39z" />
    <glyph glyph-name="fl" unicode="&#xfb02;" horiz-adv-x="1145" 
d="M1128 8q0 -8 -10 -8h-497q-13 0 -13 10v35q0 12 10 12h164q21 0 21 23v1121q0 222 -39 222h-29q-9 -43 -61 -43q-104 0 -166 84q-10 10 -25 10q-75 0 -121 -53q-53 -63 -53 -197q0 10 -1 -92t-1 -202q0 -21 12 -21q21 0 218 2q10 0 10 -10v-45q0 -12 -10 -12q-7 0 -107 2
t-104 2q-17 0 -17 -14q0 -6 2 -283.5t2 -292.5q0 -207 39 -207h180q11 0 11 -8v-33q0 -10 -8 -10h-506q-11 0 -11 6v37q1 5 2.5 7.5t10.5 2.5h137q14 0 14 17q0 6 -3 130t-3 136v485q0 25 -12 25t-82 -2q-6 0 -8 2t-2 12v35q0 16 12 16q4 0 37 1t44 1t11 15v279
q0 148 113 242q85 72 258 72q71 0 137 -37h31q70 0 147.5 20.5t67.5 20.5q18 0 18 -29q0 -3 -6 -598.5t-6 -616.5q0 -222 37 -222h145q10 0 10 -10v-39z" />
    <glyph glyph-name="apple" horiz-adv-x="1024" 
d="M128 0v1526h768v-1526h-768zM256 128h512v1270h-512v-1270z" />
    <glyph glyph-name="glyph247" horiz-adv-x="850" 
d="M727 670q0 -52 -18 -52h-566l-40 2q-19 5 -19 29q0 45 20 45q34 -2 231.5 2.5t313.5 4.5q78 0 78 -31z" />
    <glyph glyph-name="glyph248" horiz-adv-x="816" 
d="M692 780q10 -18 10 -28q0 -18 -36 -27q-215 -52 -539 -133q-37 -10 -53 18q-8 14 -8 22q0 13 30 21q27 2 535 146q45 13 61 -19z" />
    <glyph glyph-name="glyph249" horiz-adv-x="551" 
d="M537 772q9 -19 9 -29q0 -17 -36 -26l-430 -115q-37 -10 -53 19q-9 15 -9 22q0 11 31 21l426 127q45 13 62 -19z" />
    <glyph glyph-name="glyph250" horiz-adv-x="1479" 
d="M1271 1399q6 -5 -1 -17l-976 -1462q-11 -16 -24 -10q-16 8 -28 21q-8 7 1 20l978 1457q10 14 20 9q13 -6 30 -18z" />
    <glyph glyph-name="glyph251" horiz-adv-x="1006" 
d="M843 950l-659 -985q-13 -19 -20 -15q-9 6 -26 17q-7 4 2 18l659 986q12 17 18 14q9 -4 26 -13q11 -6 0 -22z" />
    <glyph glyph-name="glyph252" horiz-adv-x="783" 
d="M718 853q0 -3 -7 -20q-14 -31 -33 -69q-4 -8 -13 -8q-44 4 -86 4q-14 0 -14 -11q0 -4 3.5 -121t3.5 -128q0 -21 -13 -25q-4 -3 -52 -19q-52 -18 -58 -18q-19 0 -19 18q0 5 8 144t8 145q0 13 -16 13h-367q-25 0 -25 18q0 11 8 20q30 28 236 269q116 138 267 304
q18 12 33 12q14 0 14 -16q0 -4 -14 -251t-14 -254q0 -13 12 -11q9 0 66.5 5t61.5 5q10 0 10 -6zM469 1186q0 18 -23 -1t-101 -114l-98 -113q-89 -101 -88 -104t9 -3h271q13 0 16 3t3 10.5t5.5 163.5t5.5 158z" />
    <glyph glyph-name="glyph253" horiz-adv-x="1194" 
d="M1262 1487q29 -18 27 -60q-7 -43 -38 -43q-103 0 -166 84q-10 11 -24 11q-75 0 -121 -54q-53 -62 -53 -196q0 10 -1 -94.5t-1 -204.5q0 -21 12 -21h258q10 -20 10 -10v-43q0 -12 -14 -12l-248 4q-16 0 -16 -14q0 -6 2 -283.5t2 -292.5q0 -207 39 -207h160q10 0 10 -8v-33
q0 -10 -8 -10h-486q-10 0 -10 6v37q0 5 2 7.5t10 2.5h137q15 0 15 17q0 6 -3 130t-3 136v485q0 25 -13 25q2 0 -75.5 2t-124.5 2q-32 0 -106 -2q-60 -1 -109 0q-17 0 -17 -14q0 -6 2 -283.5t2 -292.5q0 -207 39 -207h160q10 0 10 -8v-33q0 -10 -8 -10h-485q-11 0 -11 6v37
q1 5 2.5 7.5t10.5 2.5h137q14 0 14 17q0 6 -3 130t-3 136v485q0 25 -12 25t-82 -2q-6 0 -8 2t-2 12v35q0 16 12 16q4 0 37 1t44 1t11 15v157q0 84 48 165q43 73 102 110q113 72 278 72q48 0 106 -28q49 -24 74 -50q21 49 82 100q86 72 258 72q71 0 138 -37zM760 1276
q-12 -6 -31 -6q-72 0 -166 94q-15 10 -24 10q-84 0 -129 -45q-97 -96 -97 -182q0 10 -3 -53.5t-3 -163.5q0 -21 12 -21h205q50 0 133 1t84 1q13 0 13 15v284q0 32 6 66z" />
    <glyph glyph-name="glyph254" horiz-adv-x="1688" 
d="M1661 10q0 -10 -12 -10h-439q-10 0 -10 12v31q0 14 8 14h109q18 0 18 21q0 6 1 242.5t1 261.5q0 270 -57 270q-22 0 -198.5 -2t-178.5 -2q-16 0 -16 -14q0 -6 2 -283.5t2 -292.5q0 -207 39 -207h160q10 0 10 -8v-33q0 -10 -8 -10h-486q-10 0 -10 6v37q0 5 2 7.5t10 2.5
h137q15 0 15 17q0 6 -3 130t-3 136v485q0 25 -13 25q2 0 -75.5 2t-124.5 2q-32 0 -106 -2q-60 -1 -109 0q-17 0 -17 -14q0 -6 2 -283.5t2 -292.5q0 -207 39 -207h160q10 0 10 -8v-33q0 -10 -8 -10h-485q-11 0 -11 6v37q1 5 2.5 7.5t10.5 2.5h137q14 0 14 17q0 6 -3 130
t-3 136v485q0 25 -12 25t-82 -2q-6 0 -8 2t-2 12v35q0 16 12 16q4 0 37 1t44 1t11 15v157q0 84 48 165q43 73 102 110q113 72 278 72q48 0 106 -28q49 -24 74 -50q21 49 82 100q86 72 258 72q36 0 80 -13.5t58.5 -34t10.5 -41.5q0 -39 -47 -51q-78 0 -141 84q-10 11 -24 11
q-75 0 -121 -54q-53 -62 -53 -196q0 10 -1 -94.5t-1 -204.5q0 -21 12 -21h338q61 7 178 19q65 6 60 6q22 0 22 -31q0 -3 -7 -297.5t-7 -308.5q0 -240 49 -240h121q10 0 10 -10v-37zM760 1276q-12 -6 -31 -6q-72 0 -166 94q-15 10 -24 10q-84 0 -129 -45q-97 -96 -97 -182
q0 10 -3 -53.5t-3 -163.5q0 -21 12 -21h205q50 0 133 1t84 1q13 0 13 15v284q0 32 6 66z" />
    <glyph glyph-name="glyph255" horiz-adv-x="1722" 
d="M1686 8q0 -8 -11 -8h-477q-12 0 -12 10v35q0 12 10 12h164q20 0 20 23v1126q0 221 -39 221h-28q-10 -43 -62 -43q-103 0 -166 84q-10 11 -24 11q-75 0 -121 -54q-53 -62 -53 -196q0 10 -1 -94.5t-1 -204.5q0 -21 12 -21q21 0 217 2q10 0 10 -10v-45q0 -12 -10 -12
q-6 0 -106 2t-105 2q-16 0 -16 -14q0 -6 2 -283.5t2 -292.5q0 -207 39 -207h160q10 0 10 -8v-33q0 -10 -8 -10h-486q-10 0 -10 6v37q0 5 2 7.5t10 2.5h137q15 0 15 17q0 6 -3 130t-3 136v485q0 25 -13 25q2 0 -75.5 2t-124.5 2q-32 0 -106 -2q-60 -1 -109 0q-17 0 -17 -14
q0 -6 2 -283.5t2 -292.5q0 -207 39 -207h160q10 0 10 -8v-33q0 -10 -8 -10h-485q-11 0 -11 6v37q1 5 2.5 7.5t10.5 2.5h137q14 0 14 17q0 6 -3 130t-3 136v485q0 25 -12 25t-82 -2q-6 0 -8 2t-2 12v35q0 16 12 16q4 0 37 1t44 1t11 15v157q0 84 48 165q43 73 102 110
q113 72 278 72q48 0 106 -28q49 -24 74 -50q21 49 82 100q86 72 258 72q71 0 138 -37h30q70 0 147.5 20.5t67.5 20.5q19 0 19 -29q0 -3 -6.5 -601t-6.5 -619q0 -222 37 -222h125q11 0 11 -10v-39zM760 1276q-12 -6 -31 -6q-72 0 -166 94q-15 10 -24 10q-84 0 -129 -45
q-97 -96 -97 -182q0 10 -3 -53.5t-3 -163.5q0 -21 12 -21h205q50 0 133 1t84 1q13 0 13 15v284q0 32 6 66z" />
    <glyph glyph-name="glyph256" horiz-adv-x="1634" 
d="M1597 125q0 -14 -8 -23q-41 -32 -106 -63q-101 -47 -191 -47q-215 0 -215 205q0 13 4 222t4 220q0 13 -2 67t-2 58q0 18 -18 31q-27 18 -113 55q-13 6 -12 22q0 14 14 25q41 14 121 43q13 5 19 39q28 184 28 309q0 72 -22 76q-186 35 -344 35q-116 0 -211 -62
q-88 -56 -88 -196q0 -71 59 -142q67 -79 90 -86q79 -22 146 -86q57 -54 57 -100q0 -47 -37 -47q-50 0 -102 51q-44 44 -64 111q-7 24 -45.5 30.5t-77.5 6.5q-50 0 -82 -7q-76 -14 -131 -75q-80 -89 -80 -279q0 -194 129 -330q58 -60 142 -78q43 -10 135 -10q124 0 211 62
q12 8 29 20q4 2 12 2q12 -11 12 -20q0 -15 -49 -53q-161 -125 -346 -125q-110 0 -174 34q-100 54 -168 175q-55 97 -55 258q0 104 24 194q32 118 123 197q99 86 274 86q25 0 7 18q-52 66 -70 101q-29 60 -29 137q0 136 97 211q87 67 229 67q101 0 244 -32q169 -39 229 -39
q7 0 23.5 1t23.5 1q17 0 10 -29q-8 -40 -16 -227v-197q0 -33 10 -33q9 0 170.5 5.5t167.5 5.5q20 0 14 -21q0 -20 -14 -57q-5 -15 -18 -15q-9 0 -161.5 1t-158.5 1q-12 0 -12 -10v-555q0 -88 24 -127q29 -45 134 -45q47 0 93 16q25 11 50 21q31 14 53 14q10 0 10 -18z" />
    <glyph glyph-name="glyph257" horiz-adv-x="1597" 
d="M1559 125q0 -14 -9 -23q-41 -32 -106 -63q-101 -47 -191 -47q-215 0 -215 205q0 13 4.5 222t4.5 220q0 13 -2.5 67t-2.5 58q0 18 -18 31q-27 18 -113 55q-13 6 -12 22q0 14 14 25q41 14 121 43q19 7 19 39q0 50 28 289q7 52 -22 61q-123 39 -342 39q-153 0 -213 -57
t-60 -191q0 -41 34 -105q40 -78 104 -122q32 -13 104 -66q8 -8 8 -24v-144q0 -22 -10 -22q-12 0 -18 12q-38 83 -84 180q-9 17 -23 19q-44 12 -137 12q-94 0 -150 -33q-63 -37 -63 -110q0 -116 170 -166q50 -15 147 -47q92 -31 146 -80q67 -62 67 -166q0 -109 -61 -182
q-76 -90 -254 -90q-190 0 -322 104q-14 11 -14 43q-4 41 -4 176q0 19 16 19q17 0 21 -15q0 -4 8 -28q8 -28 10 -39q25 -87 94 -172q19 -22 33 -25q48 -8 156 -8q113 0 176 55q49 43 49 119q0 45 -37 78q-48 43 -139 63q-9 3 -58 20.5t-59 20.5q-116 51 -167 101
q-72 70 -72 180q0 82 71 158q75 77 224 77h57q0 29 2 27q-52 66 -66 95q-26 53 -26 130q0 129 84 209q72 70 221 70q101 0 244 -33q169 -39 229 -39q7 0 23.5 1t23.5 1q17 0 10 -28q-8 -40 -16 -228v-176q0 -33 10 -33q9 0 171 5.5t167 5.5q20 0 15 -21q0 -20 -15 -57
q-5 -15 -18 -15q-9 0 -161.5 1t-158.5 1q-12 0 -12 -10v-555q0 -88 25 -127q28 -45 133 -45q47 0 93 16q25 11 50 21q32 14 53 14q11 0 11 -18z" />
    <glyph glyph-name="glyph258" horiz-adv-x="1106" 
d="M1047 838q0 -205 -145 -349.5t-349 -144.5t-349 144.5t-145 349.5q0 204 145 348.5t349 144.5t349 -144.5t145 -348.5zM995 838q0 190 -127 323t-315 133t-316 -133t-128 -323q0 -191 128 -324t316 -133t315 133t127 324zM788 991q0 -184 -217 -184q-29 0 -67 14
q-6 3 -6 -4v-137q0 -90 22 -90h66q8 0 8 -4v-13q0 -4 -6 -4h-248q-6 0 -6 4v13q0 4 4 4h63q7 0 7 12v395q0 115 -17 115h-59q-4 0 -4 2v16q0 3 4 3h139h166q65 -10 104 -43q47 -40 47 -99zM694 969q0 61 -43 96q-53 43 -135 43q-14 0 -18 -4v-150v-104q0 -6 4 -8
q36 -11 59 -11q133 0 133 138z" />
    <glyph glyph-name="glyph259" horiz-adv-x="379" 
d="M293 705q0 -109 -34 -282q-26 -134 -46 -194q-10 -20 -23 -20q-24 0 -24 24v29q10 46 10 146q0 243 -49 454q-12 53 -12 62q0 20 24 20q22 0 49 -12q28 -8 70 -23q24 -14 27 -26q8 -33 8 -178zM276 70q0 -35 -23 -60q-26 -26 -67 -26q-77 0 -77 79q0 84 86 84
q81 0 81 -77z" />
    <glyph glyph-name="glyph260" horiz-adv-x="1151" 
d="M1092 414q-5 -14 -5 -27q-7 -11 -14 -16q-4 -5 -37 6q-70 23 -262 92q-11 -39 -78 -233l273 -95q21 -7 35 -20q-5 -13 -5 -27q-7 -11 -14 -16q-5 -7 -37 6q-3 1 -270 94l-121 -352q-3 -12 -6 -24.5t-14 -10.5q-8 0 -27 4q-13 4 -16 15q-6 6 6 36q28 85 118 351
q-76 27 -227 79q-101 -298 -119 -339q-5 -14 -20 -35q-6 1 -27 4q-13 2 -16 14q-3 2 6 37q6 23 113 340l-252 90q-23 8 -35 21q4 13 4 26q8 12 14 17q2 2 37 -7q20 -4 250 -86q34 94 78 230q-125 44 -260 92q-25 10 -35 20q4 14 4 27q8 11 14 16q2 2 37 -6q14 -3 260 -90
l115 334q6 20 21 35q6 -1 26 -4q14 -2 17 -15q2 -2 -6 -34.5t-111 -337.5q37 -14 115.5 -40.5t115.5 -39.5q50 155 107 325q6 20 20 35l27 -4q13 -2 16 -14q3 -3 -6 -37q-13 -49 -108 -326l264 -90q21 -6 35 -20zM715 487q-37 14 -114 40.5t-114 39.5q-41 -129 -77 -231
l227 -80q27 78 78 231z" />
    <glyph glyph-name="glyph261" horiz-adv-x="690" 
d="M657 264q0 -102 -90 -172q-68 -53 -192 -72q-10 -5 -8 -202l-17 -1l-14 1q-6 0 -6 20v168q0 9 -15 8q-92 -2 -157 25q-113 46 -113 117q0 28 39 28q29 0 53 -24q5 -5 64 -82q25 -33 110 -33q21 0 21 12v316q0 10 -6 10q-109 30 -181 90q-77 66 -77 174q0 98 90 174
q63 54 170 68q8 0 8 6v66q0 16 26 16q17 0 17 -8q0 -5 -1 -33t-1 -33q0 -12 10 -12q99 0 154 -23q67 -28 67 -69q0 -37 -35 -37q-49 0 -100 80q-9 20 -84 20q-12 0 -12 -7t-2 -164.5t-2 -162.5q0 -18 6 -20q150 -26 223 -100q55 -57 55 -144zM336 537v307q0 13 -10 10
q-31 -3 -99 -49q-13 -9 -29 -46t-16 -71q0 -78 34.5 -105.5t49.5 -37.5q26 -16 53 -23q17 -4 17 15zM539 211q0 60 -56 108q-49 44 -100 52q-10 3 -10 -9q0 -5 -6.5 -148t-6.5 -148q0 -21 13 -19q71 14 118.5 61.5t47.5 102.5z" />
    <glyph glyph-name="glyph262" horiz-adv-x="1227" 
d="M1171 268q0 -78 -24 -139q-27 -67 -105 -115q-50 -30 -116 -30q-80 0 -109 14q-71 35 -104 105.5t-33 160.5q0 98 36.5 163t96.5 97q50 27 137 27q62 0 115 -29q55 -37 82 -106q24 -64 24 -148zM1075 240q0 116 -49.5 185t-134.5 69q-43 0 -59 -9q-8 -4 -25 -26
q-29 -53 -29 -146q0 -111 31 -184q24 -58 61 -84q33 -22 70 -22q43 0 71.5 17.5t49.5 74.5q14 71 14 125zM901 973q2 -5 -10 -29q-29 -56 -278.5 -515.5t-284.5 -522.5q-10 -17 -19 -23q-5 0 -20 6q-10 11 -10 13q-4 7 10 28q344 650 563 1039q10 13 20 20q9 0 19 -4
q10 -10 10 -12zM539 655q0 -73 -25 -140t-102 -114q-51 -30 -119 -30q-74 0 -107 14q-68 31 -104 107q-35 73 -35 159q0 98 37 164q35 62 98 96q50 27 137 27q63 0 115 -29q56 -40 80 -106q25 -69 25 -148zM442 627q0 116 -49.5 185t-132.5 69q-43 0 -59 -9q-8 -4 -25 -26
q-29 -49 -29 -146q0 -111 31 -184q26 -62 59.5 -84t71.5 -22q43 0 70 16q23 14 51 76q12 61 12 125z" />
    <glyph glyph-name="glyph263" horiz-adv-x="1374" 
d="M1391 184q0 -14 -13 -43q-37 -87 -121 -153q-30 -19 -75 -19q-60 0 -105 17q-45 7 -153 71q-15 9 -29 0q-73 -45 -110 -57q-88 -29 -244 -29q-265 0 -383 115q-113 109 -113 283q0 92 53 194q38 72 74 90q11 10 64 41q7 3 -3 19q-18 31 -30 63q-17 45 -17 96q0 24 23 54
q61 80 160 131q12 6 41 6q22 0 100 -16q43 -10 78 -31q16 -15 14 -23q-4 -48 -17.5 -84.5t-17.5 -36.5q-2 2 -16 19q-13 22 -49 37q-88 37 -168 37q-72 0 -72 -54q0 -26 31 -73q44 -57 125 -160q107 -138 164 -184q7 -7 10 -2q2 4 2 18q-5 140 65 195q51 38 175 38
q52 0 112 -11q34 -8 68 -15q164 -25 184 -25q55 0 90 25q46 32 43 92q-3 16 0 16q6 9 15 9q1 0 6 -5q12 -30 12 -63q0 -69 -29 -104q-55 -64 -104 -64q-123 0 -164 20q-12 2 -12 -1q-1 -3 6 -13q43 -67 43 -158q0 -163 -82 -270q-7 -8 4 -16q4 -6 47.5 -25.5t65.5 -23.5
q42 -19 96 -19q83 0 125 84q13 21 16 21q3 1 9 -5t6 -8zM1057 436q0 107 -66 172q-78 66 -186 66q-86 0 -129 -41q-43 -54 -43 -113q0 -63 18 -90q11 -10 23 -20q35 -37 131.5 -110t150.5 -103q22 -12 35 2q66 85 66 237zM856 82q6 5 0 10q-54 33 -174 123q-88 66 -184 166
q-144 149 -228 276q-6 10 -16 7q-96 -51 -96 -195q0 -46 12 -111q19 -101 98 -180q93 -93 205 -119q98 -22 168 -22q164 0 215 45z" />
    <glyph glyph-name="glyph264" horiz-adv-x="498" 
d="M489 944q0 -3 -22 -20q-104 -80 -150 -179q-86 -185 -86 -329q0 -195 121 -363q25 -33 119 -102q7 -5 14 -12q0 -5 -10.5 -13t-11.5 -8q-4 0 -25 8q-147 80 -245 197q-117 139 -117 303q0 205 164 371q92 93 202 155q14 11 27 11q6 0 14 -9q3 -4 6 -10z" />
    <glyph glyph-name="glyph265" horiz-adv-x="498" 
d="M422 426q0 -164 -117 -303q-98 -117 -246 -197q-20 -8 -24 -8q-1 0 -12 8t-11 13q1 2 15 12q47 34 118 102q121 168 121 363q0 144 -86 329q-45 99 -149 179q-23 17 -23 20q1 2 6 10q9 9 15 9q13 0 26 -11q111 -62 203 -155q164 -166 164 -371z" />
    <glyph glyph-name="glyph266" horiz-adv-x="481" 
d="M454 950q4 -4 -6 -37q-156 -429 -354 -976q-8 -23 -21 -35q-17 0 -26 4q-17 11 -17 14q-9 10 6 37q157 431 355 977q7 22 20 35q17 0 27 -4q16 -11 16 -15z" />
    <glyph glyph-name="glyph267" horiz-adv-x="999" 
d="M938 473q0 -218 -110 -346q-120 -139 -343 -139q-182 0 -298 116q-126 127 -126 355q0 193 115 329q121 144 309 144q213 0 335 -128q118 -124 118 -331zM811 420q0 197 -108 329q-99 121 -226 121q-136 0 -203 -61q-77 -72 -77 -272q0 -220 96 -364q93 -138 223 -138
q115 0 178 39q79 48 102 144q15 59 15 202z" />
    <glyph glyph-name="glyph268" horiz-adv-x="694" 
d="M627 10q0 -10 -9 -10h-546q-11 0 -11 12v33q0 12 11 12h182q20 0 20 54q0 11 2.5 245t2.5 246q0 143 -7 184q-10 68 -108 68h-76q-12 0 -12 12v31q0 12 12 12h107q124 0 175.5 10.5t49.5 10.5q14 0 14 -21q0 2 -8 -275.5t-8 -316.5q0 -260 43 -260h155q11 0 11 -10v-37z
" />
    <glyph glyph-name="glyph269" horiz-adv-x="874" 
d="M854 133q0 -14 -12 -33q-17 -39 -39 -88q-9 -12 -17 -12h-735q-16 0 -16 31q0 21 35 43q228 143 325 217q201 153 201 342q0 85 -79 149t-179 64q-156 0 -262 -123q-16 -18 -21 -18q-6 0 -14 8t-8 10q0 31 54 86q48 49 95 76q118 67 287 67q107 0 189.5 -76t82.5 -186
q0 -154 -104 -268q-39 -42 -203 -162q-56 -33 -198 -121q-11 -6 -11 -13q0 -11 25 -11h246q200 0 311 24q28 6 33 6q14 0 14 -12z" />
    <glyph glyph-name="glyph270" horiz-adv-x="811" 
d="M741 0q0 -186 -182 -317q-128 -93 -344 -93q-124 0 -215 58q-14 9 -14 20q0 8 5 15.5t13 7.5q-3 0 25 -17q66 -39 176 -39q165 0 264 84q113 94 113 275q0 127 -109 213q-66 52 -242 67q-28 3 -28 27q0 13 35 25q95 31 186 112q76 69 76 201q0 76 -60 145q-50 60 -153 60
q-119 0 -211 -68q-25 -18 -29 -18q-16 0 -16 22q0 9 10 21q57 67 145 112q81 41 209 41q108 0 180 -65t72 -184q0 -125 -115 -240q-83 -84 -124 -111q-32 -20 6 -24q144 -15 235.5 -93t91.5 -237z" />
    <glyph glyph-name="glyph271" horiz-adv-x="977" 
d="M948 131q0 -13 -10 -31q-12 -35 -30 -72q-11 -13 -32 -15q-20 0 -131 1q-16 0 -16 -16q0 -7 4 -180t4 -189q0 -31 -14 -39q-7 -5 -61 -28q-9 -2 -27.5 -9.5t-20.5 -7.5q-22 0 -22 27q0 8 3 214t3 214q0 20 -18 20h-537q-35 0 -35 27q0 17 10 31q68 68 332 405
q160 210 361 463q21 19 39 19q16 0 16 -25q0 -6 -16.5 -387.5t-16.5 -392.5q0 -22 15 -19h186q14 0 14 -10zM617 679q3 62 -27 19q-21 -20 -166 -204l-264 -334q-19 -23 4 -23h418q22 0 22 21q0 11 6.5 256t6.5 265z" />
    <glyph glyph-name="glyph272" horiz-adv-x="864" 
d="M809 903q-24 -77 -51 -123q-16 -26 -66 -26q-55 0 -194 6q-201 9 -279 49q-17 9 -20 -6q-27 -116 -58 -252q-3 -16 -1 -20q2 -5 14 -4q106 14 170 14q121 0 215 -45q71 -34 129 -93q131 -131 131 -344q0 -190 -133 -331q-56 -59 -146 -109q-96 -53 -266 -53
q-165 0 -262 67q-23 16 -23 27q0 31 17 31q1 0 28 -15q104 -55 222 -55q178 0 307 129q49 49 75 119q31 80 31 172q0 181 -133 293q-57 48 -119 67q-90 29 -190 29q-10 0 -54 -2t-51 -2q-28 0 -28 27q0 7 45 225q45 214 49 229q7 26 39 23q330 -29 498 -29q60 0 65 6
q8 11 27 11q16 0 12 -15z" />
    <glyph glyph-name="glyph273" horiz-adv-x="948" 
d="M905 481q0 -177 -63 -293q-61 -110 -156 -161q-79 -43 -209 -43q-101 0 -202 61q-88 55 -130 125q-92 154 -92 367q0 216 101 418q106 210 278 311q151 88 395 88q34 0 38 -1q18 -4 18 -26q0 -27 -43 -27q-27 0 -100 -10q-84 -12 -115 -24q-144 -56 -226 -138
q-125 -124 -170 -282q-6 -23 -2 -29q4 -5 21 4q39 22 102 53q94 39 195 39q82 0 149 -41q77 -46 119 -100q92 -119 92 -291zM780 332q0 192 -59 301q-54 99 -133 135q-68 31 -189 31q-112 0 -190 -64q-8 -6 -12 -33q-11 -61 -11 -122q0 -257 86 -369q129 -168 303 -168
q68 0 132 66q73 75 73 223z" />
    <glyph glyph-name="glyph274" horiz-adv-x="819" 
d="M850 899q0 -19 -12 -37q-28 -39 -185 -272q-110 -164 -207.5 -365t-132.5 -338q-32 -129 -32 -237q0 -33 3 -75.5t3 -43.5q0 -29 -13 -29q-5 0 -9 0.5t-9 2.5q-77 36 -102 61q-13 12 -13 39q0 58 27 186q28 136 106 303q85 180 277 453q64 85 147 196q17 24 17 33
q0 13 -33 6q-156 -32 -389 -32q-180 0 -285 30q-22 9 -22 19l8 20q1 1 24 53l23 50q7 16 20 16q7 0 52 -12q135 -37 348 -37q67 0 193 15q104 12 126 18q18 4 43 4q27 0 27 -27z" />
    <glyph glyph-name="glyph275" horiz-adv-x="870" 
d="M811 393q0 -182 -129 -311q-100 -100 -281 -100q-188 0 -282 108q-78 90 -78 246q0 117 76 223q29 41 129 111q11 8 -6 16q-181 85 -181 270q0 177 125 301q92 93 262 93q162 0 252 -90q37 -37 61 -99q21 -55 21 -96q0 -121 -80 -213q-39 -45 -149 -100q-21 -14 4 -23
q89 -31 155 -95q101 -98 101 -241zM659 1018q0 96 -71 170q-74 76 -234 76q-66 0 -95 -16q-15 -9 -42 -44q-47 -62 -47 -164q0 -137 119 -213q34 -22 160 -57q18 -5 69 16q36 16 80 60q61 76 61 172zM702 311q0 119 -83 194.5t-291 143.5q-18 6 -29 0q-46 -23 -96.5 -91
t-50.5 -165q0 -144 67 -235q80 -109 262 -109q100 0 150 57q71 83 71 205z" />
    <glyph glyph-name="glyph276" horiz-adv-x="956" 
d="M889 414q0 -245 -108 -461.5t-273 -304.5q-154 -82 -334 -82q-117 0 -117 33q0 20 27 23q-5 -1 43 -1q152 0 244 39q109 47 229 184q87 101 115 207q6 24 2 30q-3 5 -17 -1q-29 -15 -125 -49q-99 -31 -165 -31q-135 0 -235 102q-122 125 -122 353q0 249 142 379
q105 96 262 96q187 0 309.5 -136t122.5 -380zM758 342q0 229 -111 377q-102 137 -276 137q-73 0 -109 -31q-94 -81 -94 -256q0 -216 63 -313q42 -64 70 -86q20 -16 82 -41q79 -32 182 -23q118 12 170 64q11 11 17 42.5t6 129.5z" />
    <glyph glyph-name="glyph277" horiz-adv-x="580" 
d="M510 688q0 -100 -117 -207q-42 -38 -147 -96q-15 -8 -15 -18q0 -11 9 -23q18 -28 41 -43.5t61 -15.5q14 1 14 -13q0 -6 -6.5 -12.5t-41.5 -26t-45.5 -22t-18.5 -2.5q-11 0 -33 16q-52 39 -71 80q-9 18 -9 33t14 24q72 48 85 58q38 29 73 69q76 87 76 189q0 30 -27 70.5
t-95 73t-153 32.5q-44 -2 -54.5 -2t-10.5 10q0 4 12 17q29 32 38.5 37t25.5 8q20 4 78 4q152 0 243 -82q74 -66 74 -158zM344 80q0 -92 -98 -92q-68 0 -68 73q0 86 117 86q49 0 49 -67z" />
    <glyph glyph-name="glyph278" horiz-adv-x="1145" 
d="M1090 485q0 -190 -58 -270q-66 -92 -235 -92q-45 0 -94.5 44.5t-57.5 96.5q0 6 -1 9q-2 4 -11 -5q-41 -52 -105 -88q-80 -45 -143 -45q-56 0 -80 21q-58 51 -58 99q0 75 46 210q48 142 96 190q69 70 137 90q20 7 41 7q29 0 77 -15t57 -15q7 0 15.5 1.5t10.5 17.5
q1 9 55 4q18 0 34.5 -1t14.5 -13q-32 -147 -73 -344q-20 -108 4 -166q9 -22 54 -45q37 -18 50 -18q154 0 154 323q0 182 -125 309q-129 130 -324 130q-146 0 -288 -152q-137 -146 -137 -382q0 -190 97 -301q112 -128 339 -128q104 0 243 80q9 5 15 2q4 0 14 -19
q3 -8 -10 -18q-118 -82 -271 -82q-216 0 -364 130q-152 134 -152 340q0 24 2 48q21 216 160 361q145 151 352 151q243 0 384 -133q135 -127 135 -332zM709 672q3 8 -6 15q-10 6 -46 21t-60 15q-79 0 -146 -172q-43 -108 -66 -232q-11 -60 12 -83q19 -19 70 -19q67 0 145 62
q20 15 29 40q33 168 68 353z" />
    <glyph glyph-name="glyph279" horiz-adv-x="788" 
d="M694 -129q0 -12 -10 -12h-459q-28 0 -28 28v1000q0 22 18 22h465q14 0 14 -8v-33q0 -12 -12 -12h-254q-35 0 -66 4q-9 1 -12.5 -4.5t-1.5 -15.5q6 -37 6 -68v-729q0 -6 -4 -109q0 -16 4 -22t15 -4q32 4 45 4h268q12 0 12 -8v-33z" />
    <glyph glyph-name="glyph280" horiz-adv-x="481" 
d="M446 -80q0 -3 -16 -14q-9 -4 -27 -4q-12 12 -20 35q-160 433 -354 976q-10 33 -6 37q0 4 16 15q9 4 27 4q12 -13 20 -35q161 -437 354 -977q16 -27 6 -37z" />
    <glyph glyph-name="glyph281" horiz-adv-x="788" 
d="M590 -113q0 -28 -29 -28h-459q-10 0 -10 12v33q0 8 12 8h269q12 0 45 -4q11 -2 15 4t3 22q-4 103 -4 109v729q0 31 6 68q2 10 -1 15.5t-13 4.5q-31 -4 -66 -4h-254q-12 0 -12 12v33q0 8 14 8h465q19 0 19 -22v-1000z" />
    <glyph glyph-name="glyph282" horiz-adv-x="1120" 
d="M1106 10q0 -10 -12 -10h-392q-10 0 -10 10v31q0 10 8 10h95q14 0 14 21q0 24 -14 67q-42 89 -109 236q-8 0 -26.5 1t-26.5 1h-133q-15 0 -168 -10q-82 -221 -82 -271q0 -43 26 -43h80q11 0 11 -10v-31q0 -12 -11 -12h-327q-13 0 -13 10v35q0 8 7 8h63q29 0 43 27
q40 74 68 141q120 275 256 584q24 58 63 129q21 37 41 37h49q19 0 19 -8q0 -10 -13 -31q-6 -11 4 -35q53 -125 181 -405q66 -149 161 -353q46 -88 80 -88h56q12 0 12 -10v-31zM655 449q-77 179 -114 278q-3 8 -25 51q-18 -45 -39 -84q-29 -53 -117 -260q5 0 25 -1t27 -1h180
q31 0 63 17z" />
    <glyph glyph-name="glyph283" horiz-adv-x="922" 
d="M870 270q0 -272 -389 -272q-12 0 -74 3t-100 3q-78 0 -217 -4q-6 0 -8 2.5t-2 9.5v33q0 8 10 8h103q28 0 28 35t-4 172.5t-4 188.5q0 80 -1 173.5t-1 98.5q0 137 -33 137h-98q-12 0 -12 12v31q0 8 8 8q256 0 463 6q118 4 193 -51t75 -151q0 -106 -100 -170
q-21 -13 -21 -22t19 -17q69 -31 115 -91q50 -66 50 -143zM668 670q0 35 -22 79q-20 41 -42 58q-62 48 -123 53q-23 2 -100 2q-25 0 -25 -35q0 -26 2 -138.5t2 -130.5t21 -19q97 2 233 -4q54 58 54 135zM715 236q0 177 -162 237q-50 19 -166 19q-27 0 -27 -23q0 -206 5 -279
q6 -120 19.5 -130.5t96.5 -10.5q234 0 234 187z" />
    <glyph glyph-name="glyph284" horiz-adv-x="891" 
d="M852 137q0 -16 -51 -53q-146 -107 -320 -107q-115 0 -194 43q-96 52 -166 177q-58 101 -58 256q0 107 58 223q68 138 182 198q93 50 219 50q165 0 262 -39q14 -4 28 -9q11 -6 11 -28q0 -43 -20 -100q-7 -29 -23 -29q-10 0 -30 39q-23 42 -80 73q-66 35 -150 35
q-92 0 -166.5 -54t-115.5 -155q-31 -74 -31 -157q0 -212 100 -318q105 -110 275 -110q129 0 211 57q34 25 45 25q14 0 14 -17z" />
    <glyph glyph-name="glyph285" horiz-adv-x="1073" 
d="M1018 492q0 -206 -96 -338q-73 -100 -199 -134q-101 -26 -186 -26q-43 0 -113.5 5t-116.5 5q-78 0 -217 -4q-6 0 -8 2.5t-2 9.5v33q0 8 10 8h96q29 0 29 35t-2 172.5t-2 188.5q0 80 -1 173.5t-1 98.5q0 137 -31 137h-98q-12 0 -12 12v31q0 8 8 8q59 0 231 4q258 7 273 7
q109 0 198 -37q81 -34 150 -121q90 -115 90 -270zM891 340q7 120 -19 197q-29 87 -73 149q-60 85 -135 125q-83 45 -183 51q-30 2 -94 2q-31 0 -31 -30q0 -88 4 -349l5 -270q2 -131 20 -149.5t107 -18.5h63q106 0 186 39q138 67 150 254z" />
    <glyph glyph-name="glyph286" 
d="M866 156q-26 -64 -63 -144q-8 -12 -21 -12q-80 0 -230 2t-245 2q-78 0 -217 -4q-6 0 -8 2.5t-2 9.5v33q0 8 10 8h103q28 0 28 35t-4 172.5t-4 188.5v272q0 137 -35 137h-119q-12 0 -12 12v31q0 8 8 8q34 0 123 1t129 1q278 0 445 11q66 4 77 4q13 0 11 -11
q-8 -54 -19 -127q-6 -30 -20 -30t-21 30q-14 64 -51 66q-143 6 -356 6q-17 0 -17 -78q0 -127 4 -233q1 -18 19 -19q41 -2 280 -2q16 0 21 17q6 22 10 69q2 19 12 19h23q12 0 12 -17q0 -4 -3 -55.5t-3 -66.5t3 -74.5t3 -65.5q0 -22 -4 -22h-35q-12 0 -12 14q0 3 -2 39.5
t-2 50.5q0 37 -18 37q-9 0 -142 1t-141 1q-21 0 -21 -69q0 -99 5 -207q4 -113 26 -136q6 -6 90 -6q153 0 258 47q12 6 62 37q46 29 49 29q21 0 16 -14z" />
    <glyph glyph-name="glyph287" horiz-adv-x="864" 
d="M819 915q0 -52 -6 -122q-3 -37 -16 -37q-12 0 -29 39q-23 52 -111 57q-68 4 -280 4q-29 0 -29 -22q0 -27 2 -138.5t2 -128.5q0 -34 35 -37q27 -2 266 -2q14 0 17 17q2 14 2.5 39.5t1.5 29.5q0 19 12 19h23q12 0 12 -17q0 -4 1 -55.5t1 -66.5t4 -74.5t4 -65.5
q0 -22 -10 -22h-29q-9 0 -12 14q-2 33 -6 90q-4 37 -19 37q-8 0 -138 -1t-138 -1q-27 0 -27 -35q0 -43 4 -164q4 -100 17 -172q8 -47 30 -47h142q10 0 10 -8v-33q0 -8 -2.5 -10t-7.5 -2q-162 4 -240 4q-49 0 -217 -4q-6 0 -8 2.5t-2 9.5v33q0 8 10 8h102q29 0 29 35
q0 13 -6 361l-4 268q0 141 -39 141h-113q-12 0 -12 12v31q0 8 8 8q34 0 123 1t129 1q171 0 426 13q43 2 78 2q10 0 10 -11z" />
    <glyph glyph-name="glyph288" horiz-adv-x="1055" 
d="M1022 401q0 -11 -12 -12l-66 -2q-51 -2 -51 -70q0 -112 8 -231q2 -25 -24 -25q-82 0 -179 -43q-78 -34 -168 -34q-152 0 -235 45q-114 61 -174 168q-58 101 -58 256q0 122 56 227q64 121 194 186q115 58 287 58q130 0 260 -50q14 -4 26.5 -9t12.5 -27q0 -86 -4 -119
q-4 -29 -21 -29q-12 0 -26 39q-51 137 -279 137q-119 0 -213 -57q-79 -49 -120 -150q-29 -69 -29 -159q0 -75 24.5 -164t55.5 -133q107 -154 280 -154q112 0 185 57q4 37 4 146q0 134 -56 135l-114 2q-13 0 -13 12v31q0 8 9 8h432q8 0 8 -8v-31z" />
    <glyph glyph-name="glyph289" horiz-adv-x="1157" 
d="M1102 8q0 -8 -10 -8h-408q-5 0 -7.5 2t-2.5 10v33q0 8 10 8l98 -2q21 0 21 35t1 162.5t1 187.5q-18 15 -37.5 15t-118 1t-114.5 1q-160 0 -185 -7q0 -52 3 -144.5t3 -86.5q0 -162 45 -162h95q10 0 10 -10v-35q0 -8 -10 -8h-416q-5 0 -7.5 2t-2.5 10v33q0 8 10 8h121
q14 0 14 19q0 22 -3 180q-2 141 -1 197q1 82 0 173q-2 111 -2 99q0 137 -31 137h-108q-13 0 -13 12v31q0 8 9 8h417q9 0 9 -8v-31q0 -12 -13 -12h-98q-25 0 -25 -55q0 5 -3 -109t-3 -178q22 -8 51 -8q13 0 171 -1t182 -1q21 0 51 18q0 38 -1 113t-1 84q0 137 -29 137h-108
q-13 0 -13 12v31q0 8 9 8h421q9 0 9 -8v-31q0 -12 -13 -12h-108q-19 0 -19 -31q0 -18 -3 -165t-3 -193q0 -50 3 -172t3 -117q0 -52 12.5 -89.5t26.5 -37.5h101q10 0 10 -10v-35z" />
    <glyph glyph-name="glyph290" horiz-adv-x="561" 
d="M512 8q0 -8 -10 -8h-420q-5 0 -7.5 2t-2.5 10v33q0 8 10 8h119q14 0 14 19q0 22 -3 180q-2 141 -1 197q1 82 0 173q-2 111 -2 99q0 137 -31 137h-112q-13 0 -13 12v31q0 8 8 8h426q9 0 9 -8v-31q0 -12 -13 -12h-102q-31 0 -31 -55q0 -25 2 -157.5t2 -176.5q0 -48 1 -147
t1 -107q0 -162 41 -162h105q10 0 10 -10v-35z" />
    <glyph glyph-name="glyph291" horiz-adv-x="516" 
d="M489 870q0 -12 -12 -12h-104q-35 0 -35 -55q0 -25 4 -147t4 -167q0 -12 3 -194.5t3 -306.5q0 -135 -4 -176q-15 -147 -121 -240q-84 -74 -190 -74q-125 0 -125 78q0 45 68 45q40 0 102 -45q31 -22 37 -22q42 0 65 110q19 89 19 250v399l-6 408q0 55 -16.5 96t-35.5 41
h-102q-12 0 -12 12v31q0 8 8 8h442q8 0 8 -8v-31z" />
    <glyph glyph-name="glyph292" horiz-adv-x="1104" 
d="M1092 8q0 -8 -11 -8h-243q-6 0 -8.5 2t-2.5 10q0 12 -184 222q-188 215 -211 215q-20 0 -80 -37q0 -30 2 -114t2 -83q0 -98 17 -133q14 -29 49 -29h84q10 0 10 -10v-35q0 -8 -10 -8h-416q-5 0 -7.5 2t-2.5 10v33q0 8 10 8h111q14 0 14 19q0 22 -3 180q-2 141 -1 197
q1 82 0 173q-2 111 -2 99q0 137 -31 137h-98q-12 0 -12 12v31q0 8 8 8h397q8 0 8 -8v-31q0 -12 -12 -12h-88q-25 0 -25 -55q0 5 -3 -127.5t-3 -196.5q56 23 84 43q172 127 283 258q17 21 17 45q0 33 -23 33h-80q-13 0 -13 12v31q0 8 9 8h401q8 0 8 -8v-31q0 -12 -12 -12h-66
q-17 0 -66.5 -27t-68.5 -45q-91 -81 -256 -229q-30 -28 -12 -43q56 -47 183 -190q78 -88 157 -177q25 -27 50 -55q40 -39 67 -39h69q11 0 11 -10v-35z" />
    <glyph glyph-name="glyph293" horiz-adv-x="864" 
d="M850 156q-19 -64 -49 -144q-8 -12 -21 -12q-80 0 -229 2t-244 2q-78 0 -217 -4q-6 0 -8 2.5t-2 9.5v33q0 8 10 8h103q28 0 28 35v361q0 80 -3 173.5t-3 98.5q0 132 -37 131l-98 -2q-12 0 -12 12v31q0 8 8 8q63 8 231 8h225q9 0 9 -8v-31q0 -12 -13 -12h-120
q-19 0 -34.5 -27t-15.5 -59q0 -33 4.5 -164.5t4.5 -132.5v-340q2 -48 19 -61q21 -17 97 -17q153 0 258 47q13 6 44.5 36t33.5 30q5 0 18.5 -5t12.5 -9z" />
    <glyph glyph-name="glyph294" horiz-adv-x="1227" 
d="M1188 8q0 -8 -10 -8h-396q-5 0 -7.5 2t-2.5 10v33q0 8 10 8h82q33 0 33 51v320q0 164 -14 260q-194 -473 -271 -678q-7 -20 -26 -20q-13 0 -21 18q-108 245 -250 574q-3 9 -34 71q-17 -147 -17 -434q0 -98 17 -133q14 -29 49 -29h80q10 0 10 -10v-35q0 -8 -10 -8h-336
q-6 0 -8.5 2t-2.5 10v33q0 8 11 8h28q75 0 80 41q15 106 21 355q1 35 6 176q4 127 4 145q-16 47 -23 58q-20 30 -63 30h-70q-12 0 -12 12v31q0 8 8 8l252 4q21 1 29 -16q10 -22 130 -302t128 -300q24 -63 34 -63q9 0 25 38q128 306 223 574q25 70 48 69l237 -4q8 0 8 -8v-31
q0 -12 -12 -12h-94q-31 0 -31 -33q0 -18 2 -164t2 -192q0 -50 2.5 -180.5t3.5 -143.5q0 -29 14 -56q17 -36 46 -36h78q10 0 10 -10v-35z" />
    <glyph glyph-name="glyph295" horiz-adv-x="1106" 
d="M1079 870q0 -12 -12 -12h-74q-51 0 -51 -72q0 -17 2 -144t2 -173q0 -15 -2 -128.5t-2 -180.5q0 -71 4 -156q0 -24 -10 -24h-25q-10 0 -22 16q-84 110 -338 403q-125 135 -258 285q-10 -92 2 -469q5 -162 86 -162h80q10 0 10 -10v-35q0 -8 -10 -8h-369q-5 0 -7.5 2
t-2.5 10v33q0 8 10 8h29q90 0 94 33q7 54 7 179q-1 144 -1 184q1 46 -1 175l-3 144q-18 26 -37 53q-29 37 -55 37h-70q-12 0 -12 12v31q0 8 8 8l225 4q21 1 29 -16q10 -21 250 -298q233 -269 268.5 -304.5t43.5 -35.5q12 0 12 65q0 146 -9 283t-14 179q-6 72 -51 72h-94
q-13 0 -13 12v31q0 8 9 8h364q8 0 8 -8v-31z" />
    <glyph glyph-name="glyph296" horiz-adv-x="1018" 
d="M956 463q0 -133 -43 -230q-55 -124 -178 -192q-92 -51 -223 -51q-124 0 -197 30q-130 56 -190 177q-64 127 -64 258q0 143 72 266q74 127 219 172q81 25 193 25q136 0 217 -56q122 -83 151 -160q43 -86 43 -239zM809 416q0 219 -104 346q-53 52 -77 67q-57 37 -132 37
q-141 0 -203 -86q-82 -113 -82 -233q0 -214 47 -320q42 -94 137 -147q70 -39 144 -39q91 0 141 29q57 32 98 129q31 71 31 217z" />
    <glyph glyph-name="glyph297" horiz-adv-x="868" 
d="M827 653q0 -128 -97 -203q-87 -68 -218 -71q-57 -1 -131 -4q-33 -3 -33 -31v-80q1 -62 12 -164q13 -47 54 -47h116q11 0 11 -8v-33q0 -8 -2.5 -10t-8.5 -2q-145 4 -223 4q-49 0 -217 -4q-6 0 -8 2.5t-2 9.5v33q0 8 10 8h103q28 0 28 35t-4 172.5t-4 188.5q0 80 -1 182
t-1 153q0 74 -31 74h-121q-12 0 -12 12v31q0 8 8 8q4 0 226 6q14 1 213 9q123 5 221 -62q112 -77 112 -209zM682 618q0 151 -104 216q-54 32 -207 32q-27 0 -27 -22q0 -26 2 -199t2 -190q0 -37 35 -37q87 0 158 12q90 16 120 69q21 37 21 119z" />
    <glyph glyph-name="glyph298" horiz-adv-x="1051" 
d="M1139 -379q-19 -27 -185 -27q-63 0 -112 41q-126 114 -295 261q-3 1 -156 100q-32 9 -92 31q-140 63 -195 200q-41 103 -41 228q0 152 66 256q83 131 229 186q93 35 211 35q119 0 217 -60q112 -67 168 -194q43 -98 43 -211q0 -86 -27 -179q-30 -100 -77 -153
q-90 -100 -188 -131q-58 -18 -109 -20q14 -7 49 -25q28 -14 113 -72q90 -62 110 -82q135 -134 185 -149q29 3 82 -4q19 -8 4 -31zM844 401q0 99 -35 217q-41 139 -127 201q-76 55 -176 55q-79 0 -133 -28q-65 -34 -109 -115q-49 -91 -49 -188q0 -205 33 -293
q38 -101 125 -168q69 -53 176 -53q125 0 188 53q68 57 92 162q15 62 15 157z" />
    <glyph glyph-name="glyph299" horiz-adv-x="958" 
d="M981 25q0 -19 -20 -23q-41 -8 -76 -8q-90 0 -121 10q-34 11 -76 68q-86 115 -176 284q-13 24 -45 64h-74q-33 -3 -33 -31v-125q4 -92 21 -164q11 -47 53 -47h92q11 0 11 -8v-33q0 -7 -2.5 -9.5t-8.5 -2.5q-141 4 -219 4q-49 0 -217 -4q-6 0 -8 2.5t-2 9.5v33q0 8 10 8
h103q28 0 28 35t-4 172.5t-4 188.5q0 80 -1 173.5t-1 98.5q0 137 -55 137h-97q-12 0 -12 12v31q0 8 8 8q152 0 226 2l213 7q125 4 219 -57q110 -72 110 -204q0 -173 -192 -223q-8 -8 -2 -22q5 -9 108 -170q52 -79 148 -191q11 -8 80 -8q16 0 16 -18zM670 610q0 161 -90 221
q-50 33 -195 33q-28 0 -32 -13q-1 -2 -1 -40q0 -26 4 -161t4 -152q0 -37 35 -37q115 0 131 4q144 37 144 145z" />
    <glyph glyph-name="glyph300" horiz-adv-x="733" 
d="M684 272q0 -162 -111 -227q-104 -61 -215 -61q-168 0 -249 49q-34 20 -37 23q-6 6 -11 26q-14 67 -14 143q0 27 21 27q13 0 22 -16q18 -40 72 -113q86 -78 203 -78q114 0 163 33q60 39 60 127q0 120 -156 172q-74 22 -196 76q-123 76 -123 190q0 121 102 199
q116 88 274 88q88 0 110 -15.5t22 -83.5q0 -40 -17 -40q-16 0 -39 22q-41 41 -157 41q-89 0 -143 -44t-54 -105q0 -64 80 -109q33 -19 135 -55q125 -45 174 -86q84 -72 84 -183z" />
    <glyph glyph-name="glyph301" horiz-adv-x="1006" 
d="M977 885q-4 -40 -23 -80q-12 -27 -34 -6q-23 21 -75 43t-83 22h-156q-31 -1 -31 -155q0 12 -1 -99q-2 -91 -1 -174q1 -55 -1 -190q-3 -151 -3 -174q0 -19 15 -19h139q10 0 10 -8v-33q0 -8 -3 -10t-7 -2h-444q-6 0 -8.5 2t-2.5 10v33q0 8 11 8h139q14 0 14 19q0 23 -3 174
q-2 135 -1 190q1 83 0 174q-2 111 -2 99q0 158 -31 155q-53 -3 -159 -12q-76 -9 -170 -80q-31 -23 -37 -8q-1 4 -2 10q-8 49 2 88q14 58 53 56q225 -13 414 -13q292 0 440 13q18 1 30 -8.5t11 -24.5z" />
    <glyph glyph-name="glyph302" horiz-adv-x="1077" 
d="M1038 870q0 -12 -12 -12h-74q-51 0 -51 -72q0 -17 5 -144t5 -173q0 -204 -8 -260q-16 -110 -82 -160q-90 -67 -252 -67q-178 0 -265.5 67t-96.5 189q-2 26 -2 211q0 80 -1 173.5t-1 98.5q0 137 -31 137h-113q-12 0 -12 12v31q0 8 8 8h426q8 0 8 -8v-31q0 -12 -12 -12
h-102q-31 0 -31 -55q0 -25 2 -157.5t2 -176.5q0 -165 4 -225q8 -107 78 -154q75 -49 162 -49q133 0 201 72q49 51 49 211q0 331 -21 438q-6 32 -30.5 64t-42.5 32h-74q-12 0 -12 12v31q0 8 8 8h360q8 0 8 -8v-31z" />
    <glyph glyph-name="glyph303" horiz-adv-x="991" 
d="M979 864q0 -8 -6 -8h-43q-25 0 -41 -31q-31 -56 -64 -137q-132 -315 -278 -665q-12 -30 -15 -33q-6 -6 -24 -6q-16 0 -29 32q-46 120 -166 400q-126 295 -159 352q-53 90 -78 90h-49q-13 0 -13 10v31q0 10 13 10h405q10 0 10 -10v-31q0 -10 -8 -10h-115q-14 0 -14 -20
q0 -26 19 -68q146 -334 202 -483q27 -70 43 -70q14 0 35 57q64 167 178 474q11 27 11 69q0 39 -45 39h-80q-11 0 -11 10v31q0 12 11 12h299q12 0 12 -10v-35z" />
    <glyph glyph-name="glyph304" horiz-adv-x="1579" 
d="M1569 864q0 -8 -6 -8h-43q-25 0 -41 -31q-2 -3 -58 -139q-135 -314 -284 -663q-16 -39 -39 -39q-12 0 -29 32q-55 136 -166 400q-31 71 -94 213q-125 -288 -262 -606q-16 -39 -39 -39q-12 0 -29 32q-57 135 -170 398q-62 150 -155 354q-53 90 -78 90h-49q-13 0 -13 10v31
q0 10 13 10h385q10 0 10 -10v-31q0 -10 -8 -10h-95q-20 0 -20 -33q0 -15 18 -57q141 -320 203 -485q21 -56 37 -56q12 0 43 64q91 187 174 416q-19 42 -31 61q-52 90 -77 90h-64q-12 0 -12 10v31q0 10 12 10h385q10 0 10 -10v-31q0 -10 -8 -10h-94q-14 0 -14 -20
q0 -26 18 -68q146 -334 203 -483q28 -74 43 -74q20 0 39 49q70 175 188 490q13 37 6 65q-9 39 -41 39h-80q-10 0 -10 10v31q0 12 10 12h299q13 0 13 -10v-35z" />
    <glyph glyph-name="glyph305" horiz-adv-x="1069" 
d="M1056 10q0 -10 -12 -10h-434q-10 0 -10 10v31q0 10 8 10h94q20 0 20 21q0 20 -28 61q-57 75 -205 283q-131 -119 -223 -252q-35 -50 -21 -78q17 -33 72 -33h49q10 0 10 -10v-31q0 -12 -10 -12h-344q-12 0 -12 10v35q0 8 6 8h74q21 0 39 35q20 40 77 109q90 106 260 249
q-142 200 -249 342q-53 70 -86 70h-84q-13 0 -13 10v31q0 10 13 10h434q10 0 10 -10v-31q0 -10 -8 -10h-88q-21 0 -21 -20q0 -21 29 -62q47 -66 172 -244q54 50 160 197q30 42 30 85q0 6 -2 9q-16 33 -51 33h-69q-11 0 -11 10v31q0 12 11 12h344q12 0 12 -10v-35q0 -8 -6 -8
h-74q-15 0 -38 -34.5t-79 -106.5q-94 -112 -202 -215l260 -363q68 -86 123 -86h61q12 0 12 -10v-31z" />
    <glyph glyph-name="glyph306" horiz-adv-x="956" 
d="M940 864q0 -8 -6 -8h-68q-19 0 -41 -31l-96 -135q-57 -83 -135 -192q-26 -35 -29 -78q-5 -97 -4 -162q4 -73 8 -186q1 -19 15 -19h139q10 0 10 -8v-33q0 -8 -3 -10t-7 -2h-444q-6 0 -8.5 2t-2.5 10v33q0 8 11 8h133q14 0 14 19q0 20 -2 75q-2 65 -2 97v176q0 31 -29 76
q-31 49 -194 272q-66 90 -99 90h-69q-13 0 -13 10v31q0 10 13 10h405q10 0 10 -10v-31q0 -10 -8 -10h-76q-14 0 -14 -20q0 -34 23 -70q66 -106 141 -201q14 -19 39 -41q28 28 45 52q39 52 100 163q15 26 15 76q0 39 -52 39h-59q-10 0 -10 10v31q0 12 10 12h328q12 0 12 -10
v-35z" />
    <glyph glyph-name="glyph307" horiz-adv-x="883" 
d="M844 145q0 -59 -27 -112q-16 -33 -53 -33q-14 0 -136 2t-139 2q-292 0 -415 -12q-32 -3 -43 14q-12 19 16 49q156 165 338 359q293 328 293 362q-11 0 -71.5 3t-86.5 3q-127 0 -289 -14q-92 -8 -141 -37q-23 -14 -37 0q-4 6 -3 21q2 14 24 131q9 22 30 22q5 0 154 -6
t174 -6q24 0 176.5 8t159.5 8q52 0 59 -12q12 -20 -10 -49q-15 -20 -148 -182q-135 -165 -151 -183l-148 -160q-134 -148 -145 -178q-8 -21 19 -24q37 -4 159 -4q261 0 412 47q29 9 29 -19z" />
    <glyph glyph-name="glyph308" horiz-adv-x="524" 
d="M512 868q0 -6 -12 -6h-41q-213 0 -213 -176q0 -51 22.5 -98.5t22.5 -75.5q0 -34 -30 -63q-26 -26 -52 -29q27 -9 52 -37q30 -31 30 -64q0 -29 -22.5 -97.5t-22.5 -119.5q0 -155 151 -155h62q12 0 12 -6v-37q-5 -4 -14 -4h-123q-103 0 -164 61q-55 55 -55 137q0 58 43 128
t43 96t-39 53.5t-77 27.5t-38 17q0 16 38.5 16t77 24t38.5 50q0 49 -35 99t-35 102q0 198 264 198h103q12 0 14 -4v-37z" />
    <glyph glyph-name="glyph309" horiz-adv-x="524" 
d="M477 420q0 -17 -38 -17t-76.5 -27.5t-38.5 -53.5t43 -96t43 -128q0 -82 -56 -137q-61 -61 -164 -61h-122q-12 0 -15 4v37q0 6 13 6h61q152 0 152 155q0 51 -23 119.5t-23 97.5q0 33 30 64q25 28 52 37q-26 3 -52 29q-30 29 -30 63q0 28 23 75.5t23 98.5q0 176 -213 176
h-41q-13 0 -13 6v37q5 4 15 4h102q264 0 264 -198q0 -52 -34.5 -102t-34.5 -99q0 -26 38.5 -50t76.5 -24t38 -16z" />
    <glyph glyph-name="glyph310" horiz-adv-x="1073" 
d="M1018 492q0 -206 -96 -338q-73 -100 -199 -134q-101 -26 -186 -26q-43 0 -113.5 5t-116.5 5q-78 0 -217 -4q-6 0 -8 2.5t-2 9.5v33q0 8 10 8h96q29 0 29 35t-2 172.5t-2 188.5q0 80 -1 173.5t-1 98.5q0 137 -31 137h-98q-12 0 -12 12v31q0 8 8 8q59 0 231 4q258 7 273 7
q109 0 198 -37q81 -34 150 -121q90 -115 90 -270zM891 340q7 120 -19 197q-29 87 -73 149q-60 85 -135 125q-83 45 -183 51q-30 2 -94 2q-31 0 -31 -30q0 -88 4 -349l5 -270q2 -131 20 -149.5t107 -18.5h63q106 0 186 39q138 67 150 254zM561 422q0 -47 -18 -47h-408
q-43 0 -51 3.5t-8 22.5q0 41 20 41h391q74 0 74 -20z" />
    <glyph glyph-name="glyph311" horiz-adv-x="864" 
d="M850 156q-19 -64 -49 -144q-8 -12 -21 -12q-80 0 -229 2t-244 2q-78 0 -217 -4q-6 0 -8 2.5t-2 9.5v33q0 8 10 8h103q28 0 28 35v361q0 80 -3 173.5t-3 98.5q0 132 -37 131l-98 -2q-12 0 -12 12v31q0 8 8 8q63 8 231 8h225q9 0 9 -8v-31q0 -12 -13 -12h-120
q-19 0 -34.5 -27t-15.5 -59q0 -33 4.5 -164.5t4.5 -132.5v-340q2 -48 19 -61q21 -17 97 -17q153 0 258 47q13 6 44.5 36t33.5 30q5 0 18.5 -5t12.5 -9zM600 464q0 -15 -39 -24q-228 -51 -461 -114q-35 -10 -53 20q-8 14 -8 21q0 10 31 18q369 102 456 125q49 13 61.5 -11.5
t12.5 -34.5z" />
    <glyph glyph-name="glyph312" horiz-adv-x="733" 
d="M684 272q0 -162 -111 -227q-104 -61 -215 -61q-168 0 -249 49q-34 20 -37 23q-6 6 -11 26q-14 67 -14 143q0 27 21 27q13 0 22 -16q18 -40 72 -113q86 -78 203 -78q114 0 163 33q60 39 60 127q0 120 -156 172q-74 22 -196 76q-123 76 -123 190q0 121 102 199
q116 88 274 88q88 0 110 -15.5t22 -83.5q0 -40 -17 -40q-16 0 -39 22q-41 41 -157 41q-89 0 -143 -44t-54 -105q0 -64 80 -109q33 -19 135 -55q125 -45 174 -86q84 -72 84 -183zM657 1211q6 -5 -17 -32q-55 -72 -139 -174q-9 -13 -17 -13q-20 -2 -61 -2q-61 0 -71.5 2
t-18.5 9q-66 66 -150 178q-21 28 -16 32q20 12 47 -6q61 -39 201 -132q72 52 195 132q28 16 47 6z" />
    <glyph glyph-name="glyph313" horiz-adv-x="956" 
d="M940 864q0 -8 -6 -8h-68q-19 0 -41 -31l-96 -135q-57 -83 -135 -192q-26 -35 -29 -78q-5 -97 -4 -162q4 -73 8 -186q1 -19 15 -19h139q10 0 10 -8v-33q0 -8 -3 -10t-7 -2h-444q-6 0 -8.5 2t-2.5 10v33q0 8 11 8h133q14 0 14 19q0 20 -2 75q-2 65 -2 97v176q0 31 -29 76
q-31 49 -194 272q-66 90 -99 90h-69q-13 0 -13 10v31q0 10 13 10h405q10 0 10 -10v-31q0 -10 -8 -10h-76q-14 0 -14 -20q0 -34 23 -70q66 -106 141 -201q14 -19 39 -41q28 28 45 52q39 52 100 163q15 26 15 76q0 39 -52 39h-59q-10 0 -10 10v31q0 12 10 12h328q12 0 12 -10
v-35zM804 1198q-10 -10 -39 -27q-139 -79 -318 -167q-43 -26 -51 -7q-10 23 15 39l221 172q15 13 31 11q49 -7 137 -7q18 0 4 -14z" />
    <glyph glyph-name="glyph314" horiz-adv-x="881" 
d="M827 492q0 -128 -97 -204q-87 -68 -218 -71q-127 -3 -133 -2q-31 5 -31 -33q0 -46 12 -82q17 -47 54 -47h116q11 0 11 -8v-33q0 -8 -2.5 -10t-8.5 -2q-145 4 -223 4q-49 0 -217 -4q-6 0 -8 2.5t-2 9.5v33q0 8 10 8h103q28 0 28 35t-4 172.5t-4 188.5q0 80 -1 205.5
t-1 129.5q0 74 -31 74h-121q-12 0 -12 12v31q0 8 8 8q37 0 132.5 -1t119.5 -1q78 0 223 4q6 0 8.5 -2.5t2.5 -9.5v-33q0 -8 -11 -8h-116q-40 0 -54 -47q-6 -21 -6 -39q0 -22 23 -16q15 2 117 6q123 5 221 -62q112 -76 112 -208zM682 457q0 151 -104 215q-54 33 -207 33
q-27 0 -27 -23q0 -26 2 -199t2 -190q0 -37 35 -37q87 0 158 12q90 16 120 69q21 37 21 120z" />
    <glyph glyph-name="glyph315" horiz-adv-x="883" 
d="M844 145q0 -59 -27 -112q-16 -33 -53 -33q-14 0 -136 2t-139 2q-292 0 -415 -12q-32 -3 -43 14q-12 19 16 49q156 165 338 359q293 328 293 362q-11 0 -71.5 3t-86.5 3q-127 0 -289 -14q-92 -8 -141 -37q-23 -14 -37 0q-4 6 -3 21q2 14 24 131q9 22 30 22q5 0 154 -6
t174 -6q24 0 176.5 8t159.5 8q52 0 59 -12q12 -20 -10 -49q-15 -20 -148 -182q-135 -165 -151 -183l-148 -160q-134 -148 -145 -178q-8 -21 19 -24q37 -4 159 -4q261 0 412 47q29 9 29 -19zM684 1211q6 -5 -17 -32q-55 -72 -139 -174q-9 -13 -17 -13q-20 -2 -61 -2
q-61 0 -71.5 2t-18.5 9q-66 66 -150 178q-21 28 -16 32q20 12 47 -6q61 -39 201 -132q72 52 195 132q28 16 47 6z" />
    <glyph glyph-name="glyph316" horiz-adv-x="1120" 
d="M1106 10q0 -10 -12 -10h-392q-10 0 -10 10v31q0 10 8 10h95q14 0 14 21q0 24 -14 67q-42 89 -109 236q-8 0 -26.5 1t-26.5 1h-133q-15 0 -168 -10q-82 -221 -82 -271q0 -43 26 -43h80q11 0 11 -10v-31q0 -12 -11 -12h-327q-13 0 -13 10v35q0 8 7 8h63q29 0 43 27
q40 74 68 141q120 275 256 584q24 58 63 129q21 37 41 37h49q19 0 19 -8q0 -10 -13 -31q-6 -11 4 -35q53 -125 181 -405q66 -149 161 -353q46 -88 80 -88h56q12 0 12 -10v-31zM655 449q-77 179 -114 278q-3 8 -25 51q-18 -45 -39 -84q-29 -53 -117 -260q5 0 25 -1t27 -1h180
q31 0 63 17zM827 1198q-10 -10 -39 -27q-139 -79 -318 -167q-43 -26 -51 -7q-10 23 15 39l221 172q15 13 31 11q49 -7 137 -7q18 0 4 -14z" />
    <glyph glyph-name="glyph317" horiz-adv-x="1120" 
d="M1106 10q0 -10 -12 -10h-392q-10 0 -10 10v31q0 10 8 10h95q14 0 14 21q0 24 -14 67q-42 89 -109 236q-8 0 -26.5 1t-26.5 1h-133q-15 0 -168 -10q-82 -221 -82 -271q0 -43 26 -43h80q11 0 11 -10v-31q0 -12 -11 -12h-327q-13 0 -13 10v35q0 8 7 8h63q29 0 43 27
q40 74 68 141q120 275 256 584q24 58 63 129q21 37 41 37h49q19 0 19 -8q0 -10 -13 -31q-6 -11 4 -35q53 -125 181 -405q66 -149 161 -353q46 -88 80 -88h56q12 0 12 -10v-31zM655 449q-77 179 -114 278q-3 8 -25 51q-18 -45 -39 -84q-29 -53 -117 -260q5 0 25 -1t27 -1h180
q31 0 63 17zM701 997q-17 -10 -52 7q-134 63 -317 167q-29 17 -43 31q-10 10 10 10q89 0 135 7q16 2 31 -11q83 -64 221 -172q32 -25 15 -39z" />
    <glyph glyph-name="glyph318" horiz-adv-x="1120" 
d="M1106 10q0 -10 -12 -10h-392q-10 0 -10 10v31q0 10 8 10h95q14 0 14 21q0 24 -14 67q-42 89 -109 236q-8 0 -26.5 1t-26.5 1h-133q-15 0 -168 -10q-82 -221 -82 -271q0 -43 26 -43h80q11 0 11 -10v-31q0 -12 -11 -12h-327q-13 0 -13 10v35q0 8 7 8h63q29 0 43 27
q40 74 68 141q120 275 256 584q24 58 63 129q21 37 41 37h49q19 0 19 -8q0 -10 -13 -31q-6 -11 4 -35q53 -125 181 -405q66 -149 161 -353q46 -88 80 -88h56q12 0 12 -10v-31zM655 449q-77 179 -114 278q-3 8 -25 51q-18 -45 -39 -84q-29 -53 -117 -260q5 0 25 -1t27 -1h180
q31 0 63 17zM804 1016q-19 -11 -47 7q-61 39 -201 132q-72 -52 -194 -132q-28 -16 -48 -7q-6 6 17 33q55 72 139 174q10 13 17 13q20 2 61 2q61 0 71.5 -2t19.5 -9q66 -66 149 -178q21 -28 16 -33z" />
    <glyph glyph-name="glyph319" horiz-adv-x="1120" 
d="M1106 10q0 -10 -12 -10h-392q-10 0 -10 10v31q0 10 8 10h95q14 0 14 21q0 24 -14 67q-42 89 -109 236q-8 0 -26.5 1t-26.5 1h-133q-15 0 -168 -10q-82 -221 -82 -271q0 -43 26 -43h80q11 0 11 -10v-31q0 -12 -11 -12h-327q-13 0 -13 10v35q0 8 7 8h63q29 0 43 27
q40 74 68 141q120 275 256 584q24 58 63 129q21 37 41 37h49q19 0 19 -8q0 -10 -13 -31q-6 -11 4 -35q53 -125 181 -405q66 -149 161 -353q46 -88 80 -88h56q12 0 12 -10v-31zM655 449q-77 179 -114 278q-3 8 -25 51q-18 -45 -39 -84q-29 -53 -117 -260q5 0 25 -1t27 -1h180
q31 0 63 17zM818 1121q0 -47 -43 -83q-36 -32 -70 -32q-59 0 -59 60q0 33 30 69q36 44 89 44t53 -58zM513 1121q0 -47 -43 -83q-37 -32 -70 -32q-59 0 -59 60q0 33 30 69q36 44 89 44t53 -58z" />
    <glyph glyph-name="glyph320" horiz-adv-x="1120" 
d="M1106 10q0 -10 -12 -10h-392q-10 0 -10 10v31q0 10 8 10h95q14 0 14 21q0 24 -14 67q-42 89 -109 236q-8 0 -26.5 1t-26.5 1h-133q-15 0 -168 -10q-82 -221 -82 -271q0 -43 26 -43h80q11 0 11 -10v-31q0 -12 -11 -12h-327q-13 0 -13 10v35q0 8 7 8h63q29 0 43 27
q40 74 68 141q120 275 256 584q24 58 63 129q21 37 41 37h49q19 0 19 -8q0 -10 -13 -31q-6 -11 4 -35q53 -125 181 -405q66 -149 161 -353q46 -88 80 -88h56q12 0 12 -10v-31zM655 449q-77 179 -114 278q-3 8 -25 51q-18 -45 -39 -84q-29 -53 -117 -260q5 0 25 -1t27 -1h180
q31 0 63 17zM830 1117q10 -23 -6 -45q-49 -69 -157 -69q-57 0 -113 28q-96 49 -137 49q-34 0 -64 -32q-20 -23 -35 16q-5 14 11 37q49 69 157 69q48 0 111 -28q108 -49 139 -49q29 0 62 32q20 21 32 -8z" />
    <glyph glyph-name="glyph321" horiz-adv-x="1120" 
d="M1106 10q0 -10 -12 -10h-392q-10 0 -10 10v31q0 10 8 10h95q14 0 14 21q0 24 -14 67q-42 89 -109 236q-8 0 -26.5 1t-26.5 1h-133q-15 0 -168 -10q-82 -221 -82 -271q0 -43 26 -43h80q11 0 11 -10v-31q0 -12 -11 -12h-327q-13 0 -13 10v35q0 8 7 8h63q29 0 43 27
q40 74 68 141q120 275 256 584q24 58 63 129q21 37 41 37h49q19 0 19 -8q0 -10 -13 -31q-6 -11 4 -35q53 -125 181 -405q66 -149 161 -353q46 -88 80 -88h56q12 0 12 -10v-31zM655 449q-77 179 -114 278q-3 8 -25 51q-18 -45 -39 -84q-29 -53 -117 -260q5 0 25 -1t27 -1h180
q31 0 63 17zM755 1180q0 -75 -53.5 -127.5t-129.5 -52.5q-75 0 -128.5 52.5t-53.5 127.5q0 76 53.5 129.5t128.5 53.5q76 0 129.5 -53.5t53.5 -129.5zM697 1180q0 51 -37 88t-88 37q-50 0 -87.5 -37t-37.5 -88q0 -50 37.5 -86t87.5 -36q51 0 88 36t37 86z" />
    <glyph glyph-name="glyph322" horiz-adv-x="891" 
d="M852 137q0 -16 -51 -53q-146 -107 -320 -107q-115 0 -194 43q-96 52 -166 177q-58 101 -58 256q0 107 58 223q68 138 182 198q93 50 219 50q165 0 262 -39q14 -4 28 -9q11 -6 11 -28q0 -43 -20 -100q-7 -29 -23 -29q-10 0 -30 39q-23 42 -80 73q-66 35 -150 35
q-92 0 -166.5 -54t-115.5 -155q-31 -74 -31 -157q0 -212 100 -318q105 -110 275 -110q129 0 211 57q34 25 45 25q14 0 14 -17zM641 -241q0 -60 -43 -101.5t-111 -41.5q-76 0 -125 49q-8 6 -8 16q0 4 2 8q11 15 22 8q57 -30 82 -30q99 0 99 108q0 82 -80 82q-24 0 -47 -14
q-12 -7 -31 12q-12 10 0 31q28 38 63 92h37l-45 -76q17 4 31 4q154 0 154 -147z" />
    <glyph glyph-name="glyph323" 
d="M866 156q-26 -64 -63 -144q-8 -12 -21 -12q-80 0 -230 2t-245 2q-78 0 -217 -4q-6 0 -8 2.5t-2 9.5v33q0 8 10 8h103q28 0 28 35t-4 172.5t-4 188.5v272q0 137 -35 137h-119q-12 0 -12 12v31q0 8 8 8q34 0 123 1t129 1q278 0 445 11q66 4 77 4q13 0 11 -11
q-8 -54 -19 -127q-6 -30 -20 -30t-21 30q-14 64 -51 66q-143 6 -356 6q-17 0 -17 -78q0 -127 4 -233q1 -18 19 -19q41 -2 280 -2q16 0 21 17q6 22 10 69q2 19 12 19h23q12 0 12 -17q0 -4 -3 -55.5t-3 -66.5t3 -74.5t3 -65.5q0 -22 -4 -22h-35q-12 0 -12 14q0 3 -2 39.5
t-2 50.5q0 37 -18 37q-9 0 -142 1t-141 1q-21 0 -21 -69q0 -99 5 -207q4 -113 26 -136q6 -6 90 -6q153 0 258 47q12 6 62 37q46 29 49 29q21 0 16 -14zM722 1198q-10 -10 -39 -27q-139 -79 -318 -167q-43 -26 -51 -7q-10 23 15 39l221 172q15 13 31 11q49 -7 137 -7
q18 0 4 -14z" />
    <glyph glyph-name="glyph324" 
d="M866 156q-26 -64 -63 -144q-8 -12 -21 -12q-80 0 -230 2t-245 2q-78 0 -217 -4q-6 0 -8 2.5t-2 9.5v33q0 8 10 8h103q28 0 28 35t-4 172.5t-4 188.5v272q0 137 -35 137h-119q-12 0 -12 12v31q0 8 8 8q34 0 123 1t129 1q278 0 445 11q66 4 77 4q13 0 11 -11
q-8 -54 -19 -127q-6 -30 -20 -30t-21 30q-14 64 -51 66q-143 6 -356 6q-17 0 -17 -78q0 -127 4 -233q1 -18 19 -19q41 -2 280 -2q16 0 21 17q6 22 10 69q2 19 12 19h23q12 0 12 -17q0 -4 -3 -55.5t-3 -66.5t3 -74.5t3 -65.5q0 -22 -4 -22h-35q-12 0 -12 14q0 3 -2 39.5
t-2 50.5q0 37 -18 37q-9 0 -142 1t-141 1q-21 0 -21 -69q0 -99 5 -207q4 -113 26 -136q6 -6 90 -6q153 0 258 47q12 6 62 37q46 29 49 29q21 0 16 -14zM668 997q-17 -10 -52 7q-134 63 -317 167q-29 17 -43 31q-10 10 10 10q89 0 135 7q16 2 31 -11q83 -64 221 -172
q32 -25 15 -39z" />
    <glyph glyph-name="glyph325" 
d="M866 156q-26 -64 -63 -144q-8 -12 -21 -12q-80 0 -230 2t-245 2q-78 0 -217 -4q-6 0 -8 2.5t-2 9.5v33q0 8 10 8h103q28 0 28 35t-4 172.5t-4 188.5v272q0 137 -35 137h-119q-12 0 -12 12v31q0 8 8 8q34 0 123 1t129 1q278 0 445 11q66 4 77 4q13 0 11 -11
q-8 -54 -19 -127q-6 -30 -20 -30t-21 30q-14 64 -51 66q-143 6 -356 6q-17 0 -17 -78q0 -127 4 -233q1 -18 19 -19q41 -2 280 -2q16 0 21 17q6 22 10 69q2 19 12 19h23q12 0 12 -17q0 -4 -3 -55.5t-3 -66.5t3 -74.5t3 -65.5q0 -22 -4 -22h-35q-12 0 -12 14q0 3 -2 39.5
t-2 50.5q0 37 -18 37q-9 0 -142 1t-141 1q-21 0 -21 -69q0 -99 5 -207q4 -113 26 -136q6 -6 90 -6q153 0 258 47q12 6 62 37q46 29 49 29q21 0 16 -14zM709 1000q-19 -11 -47 7q-61 39 -201 132q-72 -52 -194 -132q-28 -16 -48 -7q-6 6 17 33q55 72 139 174q10 13 17 13
q20 2 61 2q61 0 71.5 -2t19.5 -9q66 -66 149 -178q21 -28 16 -33z" />
    <glyph glyph-name="glyph326" 
d="M866 156q-26 -64 -63 -144q-8 -12 -21 -12q-80 0 -230 2t-245 2q-78 0 -217 -4q-6 0 -8 2.5t-2 9.5v33q0 8 10 8h103q28 0 28 35t-4 172.5t-4 188.5v272q0 137 -35 137h-119q-12 0 -12 12v31q0 8 8 8q34 0 123 1t129 1q278 0 445 11q66 4 77 4q13 0 11 -11
q-8 -54 -19 -127q-6 -30 -20 -30t-21 30q-14 64 -51 66q-143 6 -356 6q-17 0 -17 -78q0 -127 4 -233q1 -18 19 -19q41 -2 280 -2q16 0 21 17q6 22 10 69q2 19 12 19h23q12 0 12 -17q0 -4 -3 -55.5t-3 -66.5t3 -74.5t3 -65.5q0 -22 -4 -22h-35q-12 0 -12 14q0 3 -2 39.5
t-2 50.5q0 37 -18 37q-9 0 -142 1t-141 1q-21 0 -21 -69q0 -99 5 -207q4 -113 26 -136q6 -6 90 -6q153 0 258 47q12 6 62 37q46 29 49 29q21 0 16 -14zM702 1159q0 -47 -43 -83q-36 -32 -70 -32q-59 0 -59 60q0 33 30 69q36 44 89 44t53 -58zM397 1159q0 -47 -43 -83
q-37 -32 -70 -32q-59 0 -59 60q0 33 30 69q36 44 89 44t53 -58z" />
    <glyph glyph-name="glyph327" horiz-adv-x="561" 
d="M512 8q0 -8 -10 -8h-420q-5 0 -7.5 2t-2.5 10v33q0 8 10 8h119q14 0 14 19q0 22 -3 180q-2 141 -1 197q1 82 0 173q-2 111 -2 99q0 137 -31 137h-112q-13 0 -13 12v31q0 8 8 8h426q9 0 9 -8v-31q0 -12 -13 -12h-102q-31 0 -31 -55q0 -25 2 -157.5t2 -176.5q0 -48 1 -147
t1 -107q0 -162 41 -162h105q10 0 10 -10v-35zM532 1198q-10 -10 -39 -27q-139 -79 -318 -167q-43 -26 -51 -7q-10 23 15 39l221 172q15 13 31 11q49 -7 137 -7q18 0 4 -14z" />
    <glyph glyph-name="glyph328" horiz-adv-x="561" 
d="M512 8q0 -8 -10 -8h-420q-5 0 -7.5 2t-2.5 10v33q0 8 10 8h119q14 0 14 19q0 22 -3 180q-2 141 -1 197q1 82 0 173q-2 111 -2 99q0 137 -31 137h-112q-13 0 -13 12v31q0 8 8 8h426q9 0 9 -8v-31q0 -12 -13 -12h-102q-31 0 -31 -55q0 -25 2 -157.5t2 -176.5q0 -48 1 -147
t1 -107q0 -162 41 -162h105q10 0 10 -10v-35zM470 997q-17 -10 -52 7q-134 63 -317 167q-29 17 -43 31q-10 10 10 10q89 0 135 7q16 2 31 -11q83 -64 221 -172q32 -25 15 -39z" />
    <glyph glyph-name="glyph329" horiz-adv-x="561" 
d="M512 8q0 -8 -10 -8h-420q-5 0 -7.5 2t-2.5 10v33q0 8 10 8h119q14 0 14 19q0 22 -3 180q-2 141 -1 197q1 82 0 173q-2 111 -2 99q0 137 -31 137h-112q-13 0 -13 12v31q0 8 8 8h426q9 0 9 -8v-31q0 -12 -13 -12h-102q-31 0 -31 -55q0 -25 2 -157.5t2 -176.5q0 -48 1 -147
t1 -107q0 -162 41 -162h105q10 0 10 -10v-35zM520 1000q-19 -11 -47 7q-61 39 -201 132q-72 -52 -194 -132q-28 -16 -48 -7q-6 6 17 33q55 72 139 174q10 13 17 13q20 2 61 2q61 0 71.5 -2t19.5 -9q66 -66 149 -178q21 -28 16 -33z" />
    <glyph glyph-name="glyph330" horiz-adv-x="561" 
d="M512 8q0 -8 -10 -8h-420q-5 0 -7.5 2t-2.5 10v33q0 8 10 8h119q14 0 14 19q0 22 -3 180q-2 141 -1 197q1 82 0 173q-2 111 -2 99q0 137 -31 137h-112q-13 0 -13 12v31q0 8 8 8h426q9 0 9 -8v-31q0 -12 -13 -12h-102q-31 0 -31 -55q0 -25 2 -157.5t2 -176.5q0 -48 1 -147
t1 -107q0 -162 41 -162h105q10 0 10 -10v-35zM521 1154q0 -47 -43 -83q-36 -32 -70 -32q-59 0 -59 60q0 33 30 69q36 44 89 44t53 -58zM216 1154q0 -47 -43 -83q-37 -32 -70 -32q-59 0 -59 60q0 33 30 69q36 44 89 44t53 -58z" />
    <glyph glyph-name="glyph331" horiz-adv-x="1106" 
d="M1079 870q0 -12 -12 -12h-74q-51 0 -51 -72q0 -17 2 -144t2 -173q0 -15 -2 -128.5t-2 -180.5q0 -71 4 -156q0 -24 -10 -24h-25q-10 0 -22 16q-84 110 -338 403q-125 135 -258 285q-10 -92 2 -469q5 -162 86 -162h80q10 0 10 -10v-35q0 -8 -10 -8h-369q-5 0 -7.5 2
t-2.5 10v33q0 8 10 8h29q90 0 94 33q7 54 7 179q-1 144 -1 184q1 46 -1 175l-3 144q-18 26 -37 53q-29 37 -55 37h-70q-12 0 -12 12v31q0 8 8 8l225 4q21 1 29 -16q10 -21 250 -298q233 -269 268.5 -304.5t43.5 -35.5q12 0 12 65q0 146 -9 283t-14 179q-6 72 -51 72h-94
q-13 0 -13 12v31q0 8 9 8h364q8 0 8 -8v-31zM819 1161q10 -23 -6 -45q-49 -69 -157 -69q-57 0 -113 28q-96 49 -137 49q-34 0 -64 -32q-20 -23 -35 16q-5 14 11 37q49 69 157 69q48 0 111 -28q108 -49 139 -49q29 0 62 32q20 21 32 -8z" />
    <glyph glyph-name="glyph332" horiz-adv-x="1018" 
d="M956 463q0 -133 -43 -230q-55 -124 -178 -192q-92 -51 -223 -51q-124 0 -197 30q-130 56 -190 177q-64 127 -64 258q0 143 72 266q74 127 219 172q81 25 193 25q136 0 217 -56q122 -83 151 -160q43 -86 43 -239zM809 416q0 219 -104 346q-53 52 -77 67q-57 37 -132 37
q-141 0 -203 -86q-82 -113 -82 -233q0 -214 47 -320q42 -94 137 -147q70 -39 144 -39q91 0 141 29q57 32 98 129q31 71 31 217zM805 1198q-10 -10 -39 -27q-139 -79 -318 -167q-43 -26 -51 -7q-10 23 15 39l221 172q15 13 31 11q49 -7 137 -7q18 0 4 -14z" />
    <glyph glyph-name="glyph333" horiz-adv-x="1018" 
d="M956 463q0 -133 -43 -230q-55 -124 -178 -192q-92 -51 -223 -51q-124 0 -197 30q-130 56 -190 177q-64 127 -64 258q0 143 72 266q74 127 219 172q81 25 193 25q136 0 217 -56q122 -83 151 -160q43 -86 43 -239zM809 416q0 219 -104 346q-53 52 -77 67q-57 37 -132 37
q-141 0 -203 -86q-82 -113 -82 -233q0 -214 47 -320q42 -94 137 -147q70 -39 144 -39q91 0 141 29q57 32 98 129q31 71 31 217zM684 997q-17 -10 -52 7q-134 63 -317 167q-29 17 -43 31q-10 10 10 10q89 0 135 7q16 2 31 -11q83 -64 221 -172q32 -25 15 -39z" />
    <glyph glyph-name="glyph334" horiz-adv-x="1018" 
d="M956 463q0 -133 -43 -230q-55 -124 -178 -192q-92 -51 -223 -51q-124 0 -197 30q-130 56 -190 177q-64 127 -64 258q0 143 72 266q74 127 219 172q81 25 193 25q136 0 217 -56q122 -83 151 -160q43 -86 43 -239zM809 416q0 219 -104 346q-53 52 -77 67q-57 37 -132 37
q-141 0 -203 -86q-82 -113 -82 -233q0 -214 47 -320q42 -94 137 -147q70 -39 144 -39q91 0 141 29q57 32 98 129q31 71 31 217zM753 1011q-19 -11 -47 7q-61 39 -201 132q-72 -52 -194 -132q-28 -16 -48 -7q-6 6 17 33q55 72 139 174q10 13 17 13q20 2 61 2q61 0 71.5 -2
t19.5 -9q66 -66 149 -178q21 -28 16 -33z" />
    <glyph glyph-name="glyph335" horiz-adv-x="1018" 
d="M956 463q0 -133 -43 -230q-55 -124 -178 -192q-92 -51 -223 -51q-124 0 -197 30q-130 56 -190 177q-64 127 -64 258q0 143 72 266q74 127 219 172q81 25 193 25q136 0 217 -56q122 -83 151 -160q43 -86 43 -239zM809 416q0 219 -104 346q-53 52 -77 67q-57 37 -132 37
q-141 0 -203 -86q-82 -113 -82 -233q0 -214 47 -320q42 -94 137 -147q70 -39 144 -39q91 0 141 29q57 32 98 129q31 71 31 217zM768 1115q0 -47 -43 -83q-36 -32 -70 -32q-59 0 -59 60q0 33 30 69q36 44 89 44t53 -58zM463 1115q0 -47 -43 -83q-37 -32 -70 -32q-59 0 -59 60
q0 33 30 69q36 44 89 44t53 -58z" />
    <glyph glyph-name="glyph336" horiz-adv-x="1018" 
d="M956 463q0 -133 -43 -230q-55 -124 -178 -192q-92 -51 -223 -51q-124 0 -197 30q-130 56 -190 177q-64 127 -64 258q0 143 72 266q74 127 219 172q81 25 193 25q136 0 217 -56q122 -83 151 -160q43 -86 43 -239zM809 416q0 219 -104 346q-53 52 -77 67q-57 37 -132 37
q-141 0 -203 -86q-82 -113 -82 -233q0 -214 47 -320q42 -94 137 -147q70 -39 144 -39q91 0 141 29q57 32 98 129q31 71 31 217zM775 1161q10 -23 -6 -45q-49 -69 -157 -69q-57 0 -113 28q-96 49 -137 49q-34 0 -64 -32q-20 -23 -35 16q-5 14 11 37q49 69 157 69
q48 0 111 -28q108 -49 139 -49q29 0 62 32q20 21 32 -8z" />
    <glyph glyph-name="glyph337" horiz-adv-x="1077" 
d="M1038 870q0 -12 -12 -12h-74q-51 0 -51 -72q0 -17 5 -144t5 -173q0 -204 -8 -260q-16 -110 -82 -160q-90 -67 -252 -67q-178 0 -265.5 67t-96.5 189q-2 26 -2 211q0 80 -1 173.5t-1 98.5q0 137 -31 137h-113q-12 0 -12 12v31q0 8 8 8h426q8 0 8 -8v-31q0 -12 -12 -12
h-102q-31 0 -31 -55q0 -25 2 -157.5t2 -176.5q0 -165 4 -225q8 -107 78 -154q75 -49 162 -49q133 0 201 72q49 51 49 211q0 331 -21 438q-6 32 -30.5 64t-42.5 32h-74q-12 0 -12 12v31q0 8 8 8h360q8 0 8 -8v-31zM827 1198q-10 -10 -39 -27q-139 -79 -318 -167
q-43 -26 -51 -7q-10 23 15 39l221 172q15 13 31 11q49 -7 137 -7q18 0 4 -14z" />
    <glyph glyph-name="glyph338" horiz-adv-x="1077" 
d="M1038 870q0 -12 -12 -12h-74q-51 0 -51 -72q0 -17 5 -144t5 -173q0 -204 -8 -260q-16 -110 -82 -160q-90 -67 -252 -67q-178 0 -265.5 67t-96.5 189q-2 26 -2 211q0 80 -1 173.5t-1 98.5q0 137 -31 137h-113q-12 0 -12 12v31q0 8 8 8h426q8 0 8 -8v-31q0 -12 -12 -12
h-102q-31 0 -31 -55q0 -25 2 -157.5t2 -176.5q0 -165 4 -225q8 -107 78 -154q75 -49 162 -49q133 0 201 72q49 51 49 211q0 331 -21 438q-6 32 -30.5 64t-42.5 32h-74q-12 0 -12 12v31q0 8 8 8h360q8 0 8 -8v-31zM734 997q-17 -10 -52 7q-134 63 -317 167q-29 17 -43 31
q-10 10 10 10q89 0 135 7q16 2 31 -11q83 -64 221 -172q32 -25 15 -39z" />
    <glyph glyph-name="glyph339" horiz-adv-x="1077" 
d="M1038 870q0 -12 -12 -12h-74q-51 0 -51 -72q0 -17 5 -144t5 -173q0 -204 -8 -260q-16 -110 -82 -160q-90 -67 -252 -67q-178 0 -265.5 67t-96.5 189q-2 26 -2 211q0 80 -1 173.5t-1 98.5q0 137 -31 137h-113q-12 0 -12 12v31q0 8 8 8h426q8 0 8 -8v-31q0 -12 -12 -12
h-102q-31 0 -31 -55q0 -25 2 -157.5t2 -176.5q0 -165 4 -225q8 -107 78 -154q75 -49 162 -49q133 0 201 72q49 51 49 211q0 331 -21 438q-6 32 -30.5 64t-42.5 32h-74q-12 0 -12 12v31q0 8 8 8h360q8 0 8 -8v-31zM809 994q-19 -11 -47 7q-61 39 -201 132q-72 -52 -194 -132
q-28 -16 -48 -7q-6 6 17 33q55 72 139 174q10 13 17 13q20 2 61 2q61 0 71.5 -2t19.5 -9q66 -66 149 -178q21 -28 16 -33z" />
    <glyph glyph-name="glyph340" horiz-adv-x="1077" 
d="M1038 870q0 -12 -12 -12h-74q-51 0 -51 -72q0 -17 5 -144t5 -173q0 -204 -8 -260q-16 -110 -82 -160q-90 -67 -252 -67q-178 0 -265.5 67t-96.5 189q-2 26 -2 211q0 80 -1 173.5t-1 98.5q0 137 -31 137h-113q-12 0 -12 12v31q0 8 8 8h426q8 0 8 -8v-31q0 -12 -12 -12
h-102q-31 0 -31 -55q0 -25 2 -157.5t2 -176.5q0 -165 4 -225q8 -107 78 -154q75 -49 162 -49q133 0 201 72q49 51 49 211q0 331 -21 438q-6 32 -30.5 64t-42.5 32h-74q-12 0 -12 12v31q0 8 8 8h360q8 0 8 -8v-31zM818 1137q0 -47 -43 -83q-36 -32 -70 -32q-59 0 -59 60
q0 33 30 69q36 44 89 44t53 -58zM513 1137q0 -47 -43 -83q-37 -32 -70 -32q-59 0 -59 60q0 33 30 69q36 44 89 44t53 -58z" />
    <glyph glyph-name="glyph341" horiz-adv-x="715" 
d="M688 643q4 -50 -14 -96l-2 -4q-8 -21 -31 -15q-16 5 -119.5 10.5t-120.5 4.5q-30 -3 -30 -29q0 -17 17 -115q19 -104 30 -139q-12 -276 -39 -579q-13 -25 -24 -25t-19.5 27.5t-35.5 272.5q-26 231 -32 308q29 115 60 248q3 27 -33 27q-195 0 -227 -17q-26 -13 -35 27
q-12 49 6 88q5 12 18 9q15 -6 32.5 -11.5t105.5 -12.5t102 -6q35 5 35 19q0 9 -21 82q-22 83 -30 147q-14 108 -11 117q2 4 95 4q65 0 71 -2q29 -9 19 -37q-76 -208 -82 -282q-3 -31 0 -35q3 -6 28 -4q104 7 238 22q45 12 39 12q9 0 10 -16z" />
    <glyph glyph-name="glyph342" horiz-adv-x="578" 
d="M471 774q0 -75 -53.5 -127.5t-128.5 -52.5q-76 0 -129.5 52.5t-53.5 127.5t54 128.5t129 53.5t128.5 -53.5t53.5 -128.5zM420 774q0 55 -39 95t-92 40q-54 0 -92.5 -40t-38.5 -95t38.5 -94t92.5 -39t92.5 39t38.5 94z" />
    <glyph glyph-name="glyph343" horiz-adv-x="793" 
d="M778 199q0 -12 -45 -47q-143 -113 -311 -113q-41 0 -60 2l-40 -137l-46 6l41 139q-16 6 -51 21q-85 43 -149 159q-51 93 -51 230q0 94 22 174q31 109 111 178q89 78 245 78q71 0 125 -21l60 189l35 -6l-60 -199q37 -18 76 -55q53 -51 53 -90q0 -43 -35 -43q-47 0 -92 45
q-19 19 -33 41l-176 -596q39 -13 144 -13q112 0 190 56q10 7 25 18q6 5 12 2q10 -10 10 -18zM549 801q-14 14 -39 30q-24 5 -70 5q-53 0 -71 -5q-74 -16 -113 -63q-70 -82 -70 -250q0 -176 113 -297q29 -30 59 -49z" />
    <glyph glyph-name="glyph344" horiz-adv-x="893" 
d="M819 125q0 -70 -52 -109q-45 -34 -109 -34q-66 0 -157 22q-95 24 -149 55q-77 -67 -170 -67q-151 0 -151 104q0 47 47.5 78t111.5 31q85 0 162 -33q21 31 21 96q0 47 -45 129q-49 0 -150 -10q-18 0 -22 8q-19 56 -19 47q0 9 10 9h146q-8 10 -27 36q-90 127 -90 220
q0 103 76 178q67 65 192 65q111 0 201 -47q34 -17 72 -53q41 -39 41 -59q0 -7 -17 -19q-13 -10 -16 -10q1 0 -18 18q-97 90 -199 90q-121 0 -166 -90q-27 -54 -6 -129q18 -64 63 -151q10 -17 27 -49l213 -7q6 0 6 -8v-33q-1 -4 -6 -4l-193 -2q23 -54 23 -112t-47 -142
q73 -48 116 -64q56 -21 134 -21q105 0 105 62q0 59 -60 59q-29 0 -71 -29q-23 -16 -30 -5q-14 21 0 32q56 45 98 45q49 0 79 -30q26 -28 26 -67zM295 90q-63 53 -119 53q-33 0 -54.5 -17t-21.5 -36q0 -59 82 -59q59 0 113 59z" />
    <glyph glyph-name="glyph345" horiz-adv-x="754" 
d="M699 908q0 -147 -51 -259.5t-129 -156.5q-69 -39 -136 -39q-71 0 -110 15q-10 3 -74 44q-50 32 -97 128.5t-47 242.5q0 210 84 346q39 64 123 102q55 23 121 23q124 0 225 -114q91 -105 91 -332zM579 839q0 160 -35 260q-37 108 -78 149q-48 49 -136 49q-56 0 -89 -41
q-36 -46 -50 -124q-12 -74 -12 -144q0 -164 32 -272q48 -164 102 -190t101 -26q62 0 98 41q67 74 67 298z" />
    <glyph glyph-name="glyph346" horiz-adv-x="714" 
d="M641 1334q0 -13 -20.5 -50t-37.5 -50q-12 -10 -23 -10q-26 -2 -47 -2q-186 0 -285 43q-10 3 -14 -4q-18 -27 -45 -161q-3 -11 -1 -14q3 -3 15 0q51 9 109 9q84 0 152 -30q59 -26 97 -61q93 -85 93 -227q0 -125 -96 -219q-39 -38 -104 -70q-75 -36 -192 -36
q-119 0 -189 44q-16 10 -16 18q0 30 13 30q4 0 20 -9q44 -27 151 -27q130 0 210 74q27 26 49.5 75.5t22.5 110.5q0 110 -95 185q-35 27 -79 43q-60 21 -128 21q-6 0 -36 -1.5t-35 -1.5q-19 0 -19 17q0 20 69 306q4 17 28 15q227 -19 358 -19q33 0 47 4q25 7 20 7q8 0 8 -10z
" />
    <glyph glyph-name="glyph347" horiz-adv-x="727" 
d="M661 756q0 -111 -36 -171q-42 -72 -112 -106q-57 -29 -150 -29q-159 0 -239 123q-64 97 -64 242q0 152 79 287q76 131 194 194q109 58 255 58q67 0 67 -22t-35 -22q-87 0 -149 -22q-89 -32 -150 -87q-86 -78 -122 -177q-5 -14 -1 -18q3 -4 14 3q30 14 72 33q55 26 133 26
q51 0 95 -25q53 -29 86 -74q63 -83 63 -213zM563 682q0 131 -40 194q-49 80 -101 94q-43 12 -111 12q-78 0 -128 -39q-6 -6 -8 -22q-4 -37 -4 -79q0 -156 59 -237q78 -108 198 -108q46 0 68 20q67 60 67 165z" />
    <glyph glyph-name="glyph348" horiz-adv-x="649" 
d="M652 1322q0 -12 -9 -24q-27 -38 -129 -180q-182 -255 -239 -464q-23 -85 -23 -157q0 -21 2 -49t2 -29q0 -19 -8 -19q-3 0 -7.5 1t-5.5 1q-40 14 -92 40q-8 8 -8 25q0 38 18 121q20 88 75 197q70 137 191 294q45 55 104 128q11 15 11 20q0 7 -18 4q-108 -22 -265 -22
q-139 0 -205 20q-17 5 -17 12q1 3 6 14q9 18 20 44q7 23 14 38q5 11 15 11q4 0 37 -8q97 -25 251 -25q129 0 230 22q12 3 31 3t19 -18z" />
    <glyph glyph-name="glyph349" horiz-adv-x="715" 
d="M642 721q0 -121 -92 -206q-72 -66 -211 -66q-127 0 -194 71q-56 59 -56 163q0 77 49 147q19 27 84 73q7 5 -4 11q-117 56 -117 178q0 116 91 199q66 61 188 61q117 0 182 -60q60 -55 60 -128q0 -79 -53 -141q-26 -29 -100 -66q-14 -9 3 -15q170 -59 170 -221zM526 1133
q0 61 -50.5 108t-160.5 47q-63 0 -95 -38t-32 -103q0 -133 194 -168q20 -3 45.5 6.5t55.5 38.5q43 48 43 109zM553 667q0 77 -54.5 123.5t-201.5 91.5q-12 3 -20 0q-32 -15 -67 -58.5t-35 -104.5q0 -40 18 -91q18 -47 37 -67q60 -61 174 -61q69 0 103 36q46 48 46 131z" />
    </font>
</defs>
</svg>
